новый адрес
Ссылка на приватное зеркало всего за 1$. Внимание количество ограничено!!!

iTunes

1+1

iTunes

мы

iTunes

1

iTunes

Чернобыль

iTunes

Ральф против интернета

Лицензия

ПШазам

Лицензия

Оно 2

Лицензия

30
pack

Вам бонус

ВАЖНО

!!Акция!!

Alien_RageХит недели

RePack

Resident Evil 21

ИГРА 18+

pack

RePack

jed

!!Акция!!

Alien_Rage

RePack

fifa19

RePack

Assassins Creed: Odyssey

RePack

NEED FOR SPEED™ PAYBACK

3 сезон

9 сезон

Бесстыжие 9 сезон

Все сериалы

все сериалы на PB.wtf

RePack

FAR CRY 5
Ребята, катастрофически не хватает 1900р. для оплаты серверов за Октябрь (всвязи с блокировками трафик упал в 3 раза), 1-2р., выручайте.
  

Доброе утро (Андрей Фролов) [1955, СССР, драма, комедия, SATRip от AVP Studio] pb.wtf

Доброе утро через торрент pb.wtf

Размер: 1.09 GB | Добавлен: 3 года 6 мес. назад | Торрент скачан:28 раз
Скачать  

10-05-2016 09:11 Доброе утро Скачать торрент  

Доброе утро
Страна: СССР
Производство: Мосфильм

Жанр: драма, комедия
Год выпуска: 26 мая 1955
Продолжительность: 01:25:33

Перевод: Не требуется
Cубтитры: нет
Оригинальная аудиодорожка: русский

Режиссер: Андрей Фролов

В ролях:
Татьяна Конюхова, Изольда Извицкая, Юрий Саранцев, Владимир Андреев, Лев Дуров, Евгений Матвеев, Иван Любезнов, Афанасий Белов, Нина Агапова...
Полный список актёров

Описание:
Тихая, застенчивая Катя, приехавшая из-под Курска с подругами, оказывается в группе молодых строителей шоссейной дороги. Ей нравится веселый парень, известный экскаваторщик Вася Плотников. Но ему кружит голову только его личный успех на производстве и у девушек. Катя переходит на другой участок работы, где быстро проявляется ее твердый характер, и становится передовиком строительства.

Источник: DVB
Качество видео: SATRip
Формат видео: AVI

Видео: 688x512 (4:3), 25 fps, XviD ~ 1616 kbps avg, 0.184 bit/pixel
Аудио: 48 kHz, Dolby Digital AC3 2.0, 192 kbps

Раздача от:
Общее
Полное имя : Dobroe.utro.1955.SATRip_[New-team]_by_AVP_Studio.avi
Формат : AVI
Формат/Информация : Audio Video Interleave
Размер файла : 1,09 Гбайт
Продолжительность : 1 ч. 25 м.
Общий поток : 1818 Кбит/сек
Программа кодирования : VirtualDubMod 1.5.10.3 | www.virtualdub-fr.org || (build 2550/release)
Библиотека кодирования : VirtualDubMod build 2550/release

Видео
Идентификатор : 0
Формат : MPEG-4 Visual
Профиль формата : Advanced Simple@L5
Параметр BVOP формата : 1
Параметр QPel формата : Нет
Параметр GMC формата : Без точки перехода
Параметр матрицы формата : Выборочная
Идентификатор кодека : XVID
Идентификатор кодека/Подсказка : XviD
Продолжительность : 1 ч. 25 м.
Битрейт : 1616 Кбит/сек
Ширина : 688 пикселей
Высота : 512 пикселей
Соотношение сторон : 4:3
Частота кадров : 25,000 кадров/сек
Цветовое пространство : YUV
Субдискретизация насыщенности : 4:2:0
Битовая глубина : 8 бит
Тип развёртки : Прогрессивная
Метод сжатия : С потерями
Бит/(Пиксели*Кадры) : 0.184
Размер потока : 989 Мбайт (89%)
Библиотека кодирования : XviD 1.2.1 (UTC 2008-12-04)

Аудио
Идентификатор : 1
Формат : AC-3
Формат/Информация : Audio Coding 3
Расширение режима : CM (complete main)
Параметр Endianness формата : Big
Идентификатор кодека : 2000
Продолжительность : 1 ч. 25 м.
Вид битрейта : Постоянный
Битрейт : 192 Кбит/сек
Каналы : 2 канала
Расположение каналов : Front: L R
Частота : 48,0 КГц
Частота кадров : 31,250 кадров/сек (1536 spf)
Метод сжатия : С потерями
Размер потока : 117 Мбайт (11%)
Выравнивание : Разделение по промежуткам
Продолжительность промежутка : 40 мс. (1,00 видеокадр)
Время предзагрузки промежутка : 500 мс
pb.wtf



Скачать Доброе утро через торрент http://i023.radikal.ru/1605/97/8f24a814cebd.png Скачать фильм Доброе утро через торрент бесплантно в хорошем качестве Описание:Тихая, застенчивая Катя, приехавшая из-под Курска с подругами, оказывается в группе молодых строителей шоссейной дороги. Ей ... 5 10 1
Info! Золотая раздача, скачанное не засчитывается.
Торрент: Зарегистрирован [2016-05-10 09:11] · скачан: 28 раз
Статус: √ проверено
Размер: 1.09 GB
Как cкачать? Как скачать Доброе утро через торрент | qTorrent

% Раздел Тема Автор DL S | L
Фильмы [HD 720p, 1080p] (Хороший звук DUB, MVO) [ 12.6 GB ] Доброе утро Вьетнам / Good Morning Vietnam [1987 военный BDRip 1080p] DUB MVO AVO -Lexx- Скачать
1 | 0
Кино СССР [ 1.09 GB ] Доброе утро [1955 СССР SATRip-AVC от AVP Studio] AVP Studio Скачать
1 | 0
Кино СССР [ 743 MB ] Доброе утро [1955 СССР SATRip от AVP Studio] AVP Studio Скачать
1 | 0
Фильмы 2010 [ 1.37 GB ] Доброе утро / Morning Glory [2010 HDRip лицензия] Lil Badun Скачать
1 | 0
HD ролики [ 1.11 GB ] Доброе утро / Good Morning [2013 All Sex Oral HDvideo Brunette Pantyhose HD 720p] sheker187 Скачать
1 | 0
Фильмы до 2000 г. [ 2.05 GB ] Доброе утро Вьетнам / Good Morning Vietnam [1987 военный HDRip DUB] кэп Скачать
1 | 0
Фильмы 2010 [ 701 MB ] Доброе утро / Morning Glory [2010 HDRip лицензия] SD Скачать
2 | 0
    Дорогой пользователь! Огромная просьба, поблагодарите релизера, оцените раздачу и оставьте свои комментарий, если Вы скачали Доброе утро через торрент бесплатно! Внесите свою лепту в развитие PiratBit!
    Комментировать посты могут только пользователи прошедшие не сложную регистрацию
    Показать сообщения:    

    Доброе утро через торрент
    Скачать бесплатно Доброе утро
    Доброе утро скачать торрент
    Доброе утро смотреть онлайн
    Cкачать фильм Доброе утро бесплатно
    Доброе утро скачать торрент в хорошем качестве
    Доброе утро смотреть онлайн бесплатно в хорошем качестве


    Вы не можете начинать темы
    Вы не можете отвечать на сообщения
    Вы не можете редактировать свои сообщения
    Вы не можете удалять свои сообщения
    Вы не можете голосовать в опросах
    Вы не можете прикреплять файлы к сообщениям
    Вы можете скачивать файлы