2 сезон

iTunes

1 сезон

1

iTunes

iTunes

iTunes

1 сезон

RePack

30

ИГРА 18+

pack

ВАЖНО

!!Акция!!

Alien_RageХит недели

RePack

MK11
pack

Забери бонус

RePack

jed

!!Акция!!

Alien_Rage

RePack

fifa19

RePack

Assassins Creed: Odyssey

RePack

NEED FOR SPEED™ PAYBACK

4 сезон

9 сезон

Бесстыжие 9 сезон

Все сериалы

все сериалы на PB.wtf

RePack

FAR CRY 5
  

Элвин и бурундуки: Грандиозное бурундуключение / Alvin and the Chipmunks: The Road Chip (Уолт Бекер) [2015, комедия, приключения, семейный, BDRip 1080p от еnvy / NNNB] DUB Лицензия pb.wtf

Элвин и бурундуки: Грандиозное бурундуключение через торрент pb.wtf

Раздают: 3 [ 0 KB/s ]
Размер: 7.72 GB | Добавлен: 4 года 5 мес. назад | Торрент скачан:122 раза
Скачать  

10-05-2016 17:55 Элвин и бурундуки: Грандиозное бурундуключение Скачать торрент  

Информация о фильме

Русское название: Элвин и бурундуки: Грандиозное бурундуключение
Оригинальное название: Alvin and the Chipmunks: The Road Chip
Год выхода: 2015
Жанр: комедия, приключения, семейный
Режиссер: Уолт Бекер
Выпущено: США
Продолжительность: 01:32:00
Перевод: Дублированный
В ролях: Джейсон Ли, Джастин Лонг, Мэттью Грей Гублер ,Джесси МакКартни ,Кимберли Уильямс-Пэйсли, Джош Грин, Тони Хейл, Белла Торн ,Эдди Стиплз, Кристина Эпплгейт


Сюжет фильма

Бурундуки пойдут на всё, чтобы сохранить свою семью, даже на грандиозное бурундуключение по всей Америке! Когда Бурундуки видят, что Дэйв берет с собой коробочку с кольцом в поездку в Майами, они отчаянно пытаются помешать ему сделать предложение его девушке — из опасения, что мачеха и сводный брат внесут перемены в их семейную идиллию. Но после того, как их помещают в черный список за хулиганское поведение в самолете, Элвин, Саймон, Теодор и их будущий брат Майлз отправляются в самое важное путешествие в их жизни через всю страну, чтобы успеть помешать помолвке.


Файл

Качество: BDRip 1080p (исходник Blu-ray Disc)
Формат: MKV
Видео: 1920x1038, 11176 Кбит/сек, 23,976 кадр/сек, AVC, x264, High@L4.1, 1.85:1, 0.234 Бит/[Пиксели*Кадры]
Аудио 1: AC-3, 448 Кбит/сек, 6 канала(ов), 48,0 КГц - Дублированный / Русский
Аудио 2: AC-3, 448 Кбит/сек, 6 канала(ов), 48,0 КГц - Оригинал / Английский
Субтитры: Русские | Полные, Английские | Полные
Форсированные субтитры: Русские
Чаптеры (Главы): Есть






Автор Рипа: Сообщество:


Код:

Format                      : Matroska
Format version              : Version 2
File size                   : 7.72 GiB
Duration                    : 1h 32mn
Overall bit rate            : 12.0 Mbps
Movie name                  : Элвин и бурундуки: Грандиозное бурундуключение.(2015).BDRip.1080p.[envy]
Encoded date                : UTC 2016-05-10 17:20:14
Writing application         : mkvmerge v5.8.0 ('No Sleep / Pillow') built on Sep  2 2012 15:37:04
Writing library             : libebml v1.2.3 + libmatroska v1.3.0

Video
ID                          : 1
Format                      : AVC
Format/Info                 : Advanced Video Codec
Format profile              : High@L4.1
Format settings, CABAC      : Yes
Format settings, ReFrames   : 4 frames
Codec ID                    : V_MPEG4/ISO/AVC
Duration                    : 1h 32mn
Bit rate                    : 11.2 Mbps
Width                       : 1 920 pixels
Height                      : 1 038 pixels
Display aspect ratio        : 1.85:1
Frame rate mode             : Constant
Frame rate                  : 23.976 (24000/1001) fps
Color space                 : YUV
Chroma subsampling          : 4:2:0
Bit depth                   : 8 bits
Scan type                   : Progressive
Bits/(Pixel*Frame)          : 0.234
Stream size                 : 6.99 GiB (91%)
Title                       : Элвин и бурундуки: Грандиозное бурундуключение.(2015).BDRip.1080p.[envy]
Writing library             : x264 core 148 r2692 64f4e24
Encoding settings           : cabac=1 / ref=4 / deblock=1:-3:-3 / analyse=0x3:0x133 / me=umh / subme=11 / psy=1 / psy_rd=1.00:0.00 / mixed_ref=1 / me_range=32 / chroma_me=1 / trellis=2 / 8x8dct=1 / cqm=0 / deadzone=21,11 / fast_pskip=0 / chroma_qp_offset=-2 / threads=12 / lookahead_threads=1 / sliced_threads=0 / nr=0 / decimate=1 / interlaced=0 / bluray_compat=0 / constrained_intra=0 / bframes=5 / b_pyramid=2 / b_adapt=2 / b_bias=0 / direct=3 / weightb=1 / open_gop=0 / weightp=2 / keyint=240 / keyint_min=23 / scenecut=40 / intra_refresh=0 / rc=2pass / mbtree=0 / bitrate=11176 / ratetol=2.0 / qcomp=0.60 / qpmin=0 / qpmax=69 / qpstep=4 / cplxblur=20.0 / qblur=0.5 / ip_ratio=1.40 / pb_ratio=1.30 / aq=2:0.70
Language                    : English
Default                     : Yes
Forced                      : No

Audio #1
ID                          : 2
Format                      : AC-3
Format/Info                 : Audio Coding 3
Mode extension              : CM (complete main)
Format settings, Endianness : Big
Codec ID                    : A_AC3
Duration                    : 1h 32mn
Bit rate mode               : Constant
Bit rate                    : 448 Kbps
Channel(s)                  : 6 channels
Channel positions           : Front: L C R, Side: L R, LFE
Sampling rate               : 48.0 KHz
Frame rate                  : 31.250 fps (1536 spf)
Compression mode            : Lossy
Stream size                 : 295 MiB (4%)
Title                       : Dub
Language                    : Russian
Default                     : Yes
Forced                      : No

Audio #2
ID                          : 3
Format                      : AC-3
Format/Info                 : Audio Coding 3
Mode extension              : CM (complete main)
Format settings, Endianness : Big
Codec ID                    : A_AC3
Duration                    : 1h 32mn
Bit rate mode               : Constant
Bit rate                    : 448 Kbps
Channel(s)                  : 6 channels
Channel positions           : Front: L C R, Side: L R, LFE
Sampling rate               : 48.0 KHz
Frame rate                  : 31.250 fps (1536 spf)
Compression mode            : Lossy
Stream size                 : 295 MiB (4%)
Title                       : Eng
Language                    : English
Default                     : No
Forced                      : No

Text #1
ID                          : 4
Format                      : UTF-8
Codec ID                    : S_TEXT/UTF8
Codec ID/Info               : UTF-8 Plain Text
Title                       : Rus forced
Language                    : Russian
Default                     : Yes
Forced                      : Yes

Text #2
ID                          : 5
Format                      : UTF-8
Codec ID                    : S_TEXT/UTF8
Codec ID/Info               : UTF-8 Plain Text
Title                       : Rus full
Language                    : Russian
Default                     : No
Forced                      : No

Text #3
ID                          : 6
Format                      : UTF-8
Codec ID                    : S_TEXT/UTF8
Codec ID/Info               : UTF-8 Plain Text
Title                       : Eng full
Language                    : English
Default                     : No
Forced                      : No

Menu
00:00:00.000                : en:00:00:00.000
00:05:35.210                : en:00:05:35.210
00:08:09.322                : en:00:08:09.322
00:12:31.042                : en:00:12:31.042
00:16:40.333                : en:00:16:40.333
00:20:11.085                : en:00:20:11.085
00:22:45.447                : en:00:22:45.447
00:24:56.870                : en:00:24:56.870
00:27:57.217                : en:00:27:57.217
00:30:30.829                : en:00:30:30.829
00:35:27.751                : en:00:35:27.751
00:39:55.059                : en:00:39:55.059
00:42:55.531                : en:00:42:55.531
00:45:58.506                : en:00:45:58.506
00:49:43.480                : en:00:49:43.480
00:55:16.563                : en:00:55:16.563
00:58:13.490                : en:00:58:13.490
01:01:46.244                : en:01:01:46.244
01:04:39.000                : en:01:04:39.000
01:09:26.662                : en:01:09:26.662
01:13:25.860                : en:01:13:25.860
01:16:30.878                : en:01:16:30.878
01:21:39.811                : en:01:21:39.811
01:25:03.932                : en:01:25:03.932


pb.wtf



Скачать Элвин и бурундуки: Грандиозное бурундуключение через торрент http://img10.lostpic.net/2016/05/10/2354d4f93f33dc6569075c5b35ceab1f.png Скачать фильм Элвин и бурундуки: Грандиозное бурундуключение через торрент бесплантно в хорошем качестве В ролях: Джейсон Ли, Джастин Лонг, Мэттью Грей Гублер ,Джесси МакКартни ,Кимберли Уильямс-Пэйсли, Джош Грин, Тони Хейл, Белла Торн ,Эдди ... 10 10 3
Info! Золотая раздача, скачанное не засчитывается.
Торрент: Зарегистрирован [2016-05-10 17:55] · скачан: 122 раз
Статус: √ проверено
Размер: 7.72 GB
Как cкачать? Как скачать Элвин и бурундуки: Грандиозное бурундуключение через торрент | qTorrent

% Раздел Тема Автор DL S | L
Иностранные мультфильмы [ 1.46 GB ] Элвин и бурундуки: Грандиозное бурундуключение / Alvin and the Chipmunks: The Road Chip [2015 мультфильм BDRip-AVC] DUB potroks Скачать
1 | 0
Зарубежные Мультфильмы (BDRip 1080p, 720p, Blu-ray, BD-Remux) [ 4.63 GB ] Элвин и бурундуки: Грандиозное бурундуключение / Alvin and the Chipmunks: The Road Chip [2015 мультфильм BDRip 720p] DUB potroks Скачать
1 | 0

28-11-2019 20:33  

Отключить всю рекламу на сайте

    Дорогой пользователь! Огромная просьба, поблагодарите релизера, оцените раздачу и оставьте свои комментарий, если Вы скачали Элвин и бурундуки: Грандиозное бурундуключение через торрент бесплатно! Внесите свою лепту в развитие PiratBit!
    Комментировать посты могут только пользователи прошедшие не сложную регистрацию
    Показать сообщения:    

    Элвин и бурундуки: Грандиозное бурундуключение через торрент
    Скачать бесплатно Элвин и бурундуки: Грандиозное бурундуключение
    Элвин и бурундуки: Грандиозное бурундуключение скачать торрент
    Элвин и бурундуки: Грандиозное бурундуключение смотреть онлайн
    Cкачать фильм Элвин и бурундуки: Грандиозное бурундуключение бесплатно
    Элвин и бурундуки: Грандиозное бурундуключение скачать торрент в хорошем качестве
    Элвин и бурундуки: Грандиозное бурундуключение смотреть онлайн бесплатно в хорошем качестве


    Вы не можете начинать темы
    Вы не можете отвечать на сообщения
    Вы не можете редактировать свои сообщения
    Вы не можете удалять свои сообщения
    Вы не можете голосовать в опросах
    Вы не можете прикреплять файлы к сообщениям
    Вы можете скачивать файлы