Ссылка на приватное зеркало всего за 1$. Внимание количество ограничено!!!

OK

1+1

iTunes

мы

OK

1

WEB-DLRip

Джокер

Пифагор

Ведьмак / The Witcher сериал

Лицензия

ПШазам

ОК

Оно 2

iTunes

30
pack

Вам бонус

ВАЖНО

!!Акция!!

Alien_RageХит недели

RePack

Resident Evil 21

ИГРА 18+

pack

RePack

jed

!!Акция!!

Alien_Rage

RePack

fifa19

RePack

Assassins Creed: Odyssey

RePack

NEED FOR SPEED™ PAYBACK

4 сезон

9 сезон

Бесстыжие 9 сезон

Все сериалы

все сериалы на PB.wtf

RePack

FAR CRY 5
  

Война и мир / War & Peace / Серии: 1-6 из 6 (Том Харпер / Tom Harper) [2016, Великобритания, драма, мелодрама, военный, BDRip 720p] Дубляж [Первый канал] + Original pb.wtf

Война и мир через торрент pb.wtf

Размер: 19.76 GB | Добавлен: 3 года 8 мес. назад | Торрент скачан:123 раза
Скачать  

10-05-2016 23:29 Война и мир Скачать торрент  

Война и мир / War & Peace

Год выпуска: 2016
Страна: Великобритания
Жанр: драма, мелодрама, военный, история
Продолжительность: 00:59:23
Перевод:
|Профессиональный (полное дублирование) Первый канал|
Субтитры: Русские (Forced), английские

Режиссер: Том Харпер / Tom Harper
В ролях: Пол Дано (Pierre Bezukhov), Джеймс Нортон (Andrei Bolkonsky), Лили Джеймс (Natasha Rostova), Эдриен Эдмондсон (Count Ilya Rostov), Эшлин Лофтус (Sonya Rostova), Грета Скакки (Countess Natalya Rostova), Джек Лауден (Nikolai Rostov), Таппенс Мидлтон (Helene Bezukhova), Анейрин Барнард (Boris Drubetskoy), Джесси Бакли (Marya Bolkonskaya), Оливия Росс (Mademoiselle Bourienne), Том Бёрк (Fedya Dolokhov)
Описание:
Действие сериала развивается в России XIX века, охватывая период с 1805 по 1812 годы. В основу сюжета положен роман Льва Толстого «Война и мир», основное внимание сфокусировано на судьбах Пьера Безухова, Андрея Болконского и Наташи Ростовой.

Рейтинг

Качество: BDRip 720p
Формат: MKV
Видео кодек: AVC
Аудио кодек: AC3
Видео: AVC, 1280x718 (16:9), ~7500 kbps, 25 fps
Аудио №1: Russian: 48 kHz, AC3 Dolby Digital, 2.0, ~192.00 kbps avg
Аудио №2: English: 48 kHz, AC3 Dolby Digital, 3/2 (L,C,R,l,r) + LFE ch, ~640.00 kbps avg
Оформление: Messa-fan
Релиз:
Запись звука: Justin
Синхронизация звука: messafan

Код:

General
Unique ID                                : 191751713608378743212236549471630001822 (0x90420965FF1F7622BC9292C67780069E)
Complete name                            : War.and.Peace.2015.S01.720p.BluRay.DUB.Eng.CasStudio\War.and.Peace.2015.E01.720p.BluRay.DUB.Eng.CasStudio.mkv
Format                                   : Matroska
Format version                           : Version 4 / Version 2
File size                                : 3.45 GiB
Duration                                 : 59mn 23s
Overall bit rate                         : 8 319 Kbps
Movie name                               : War and Peace (2016) Episode 1 - release by messafan for CasStudio.TV
Encoded date                             : UTC 2016-05-10 22:45:27
Writing application                      : mkvmerge v6.7.0 ('Back to the Ground') 64bit built on Jan  8 2014 15:10:52
Writing library                          : libebml v1.3.0 + libmatroska v1.4.1

Video
ID                                       : 1
Format                                   : AVC
Format/Info                              : Advanced Video Codec
Format profile                           : High@L4
Format settings, CABAC                   : Yes
Format settings, ReFrames                : 9 frames
Codec ID                                 : V_MPEG4/ISO/AVC
Duration                                 : 59mn 23s
Bit rate                                 : 7 321 Kbps
Width                                    : 1 280 pixels
Height                                   : 718 pixels
Display aspect ratio                     : 16:9
Frame rate mode                          : Constant
Frame rate                               : 25.000 fps
Color space                              : YUV
Chroma subsampling                       : 4:2:0
Bit depth                                : 8 bits
Scan type                                : Progressive
Bits/(Pixel*Frame)                       : 0.319
Stream size                              : 3.04 GiB (88%)
Title                                    : War.and.Peace.E01.2016.720p.BluRay.x264-HANDJOB
Writing library                          : x264 core 142 r2479 dd79a61
Encoding settings                        : cabac=1 / ref=9 / deblock=1:-3:-3 / analyse=0x3:0x133 / me=umh / subme=10 / psy=1 / psy_rd=1.00:0.05 / mixed_ref=1 / me_range=32 / chroma_me=1 / trellis=2 / 8x8dct=1 / cqm=0 / deadzone=21,11 / fast_pskip=0 / chroma_qp_offset=-3 / threads=3 / lookahead_threads=1 / sliced_threads=0 / nr=0 / decimate=0 / interlaced=0 / bluray_compat=0 / constrained_intra=0 / bframes=7 / b_pyramid=2 / b_adapt=2 / b_bias=0 / direct=3 / weightb=1 / open_gop=0 / weightp=2 / keyint=250 / keyint_min=25 / scenecut=40 / intra_refresh=0 / rc_lookahead=60 / rc=crf / mbtree=0 / crf=16.0 / qcomp=0.65 / qpmin=0 / qpmax=69 / qpstep=4 / vbv_maxrate=20000 / vbv_bufsize=25000 / crf_max=0.0 / nal_hrd=none / filler=0 / ip_ratio=1.40 / pb_ratio=1.30 / aq=2:0.90
Language                                 : English
Default                                  : Yes
Forced                                   : No
Color range                              : Limited
Color primaries                          : BT.709
Transfer characteristics                 : BT.709
Matrix coefficients                      : BT.709

Audio #1
ID                                       : 2
Format                                   : AC-3
Format/Info                              : Audio Coding 3
Mode extension                           : CM (complete main)
Format settings, Endianness              : Big
Codec ID                                 : A_AC3
Duration                                 : 59mn 23s
Bit rate mode                            : Constant
Bit rate                                 : 192 Kbps
Channel(s)                               : 2 channels
Channel positions                        : Front: L R
Sampling rate                            : 48.0 KHz
Bit depth                                : 16 bits
Compression mode                         : Lossy
Delay relative to video                  : -80ms
Stream size                              : 81.6 MiB (2%)
Title                                    : DUB 1tv DD2.0 @ 192kbps
Language                                 : Russian
Default                                  : Yes
Forced                                   : No

Audio #2
ID                                       : 3
Format                                   : AC-3
Format/Info                              : Audio Coding 3
Mode extension                           : CM (complete main)
Format settings, Endianness              : Big
Codec ID                                 : A_AC3
Duration                                 : 59mn 23s
Bit rate mode                            : Constant
Bit rate                                 : 640 Kbps
Channel(s)                               : 6 channels
Channel positions                        : Front: L C R, Side: L R, LFE
Sampling rate                            : 48.0 KHz
Bit depth                                : 16 bits
Compression mode                         : Lossy
Delay relative to video                  : -80ms
Stream size                              : 272 MiB (8%)
Title                                    : English DD5.1 @ 640kbps
Language                                 : English
Default                                  : No
Forced                                   : No

Text #1
ID                                       : 4
Format                                   : UTF-8
Codec ID                                 : S_TEXT/UTF8
Codec ID/Info                            : UTF-8 Plain Text
Title                                    : Rus Forced
Language                                 : Russian
Default                                  : Yes
Forced                                   : Yes

Text #2
ID                                       : 5
Format                                   : UTF-8
Codec ID                                 : S_TEXT/UTF8
Codec ID/Info                            : UTF-8 Plain Text
Title                                    : English [Hard of Hearing]
Language                                 : English
Default                                  : No
Forced                                   : No

Menu
00:00:00.000                             : :Chapter 1
00:09:55.800                             : :Chapter 2
00:20:59.200                             : :Chapter 3
00:29:41.880                             : :Chapter 4
00:39:36.320                             : :Chapter 5
00:48:50.800                             : :Chapter 6



Внимание! Раздача ведётся путём добавления новых серий; при каждом добавлении создётся новый торрент. Чтобы начать докачку новой серии, пользователям необходимо сделать следующее:
(1) остановить скачивание,
(2) удалить старый торрент у себя из клиента (старые серии удалять не надо),
(3) скачать новый торрент и запустить его у себя в клиенте вместо старого, при этом указать клиенту путь в старую папку куда и должно происходить скачивание новых серий.
Ваш клиент при этом должен произвести хеширование (проверку) старой папки (если не производит сам - помогите ему сделать это), и будет докачивать только те серии которых у вас ещё нет. Старые серии при этом не удаляются, а продолжают раздаваться!
Eсли вы уже удалили старые серии, то предотвратить повторную закачку старых серий можно, отжав галочку в соответсвующих местах при запуске нового торрента. По возможности, желательно не удалять старые серии как можно дольше чтобы релизёр не столько продолжал раздавать старые серии, а смог сконцентрироваться на новых.
pb.wtf



Скачать Война и мир через торрент http://i76.fastpic.ru/big/2016/0314/98/22f9c804f4c7000a8be9f8f252b48b98.jpg Скачать фильм Война и мир через торрент бесплантно в хорошем качестве Описание: Действие сериала развивается в России XIX века, охватывая период с 1805 по 1812 годы. В основу сюжета положен роман Льва Толстого ... 10 10 7
Info! Золотая раздача, скачанное не засчитывается.
Торрент: Зарегистрирован [2016-05-13 19:07] · скачан: 123 раз
Статус: √ проверено
Размер: 19.76 GB
Как cкачать? Как скачать Война и мир через торрент | qTorrent

28-11-2019 20:33  

Отключить всю рекламу на сайте

    Дорогой пользователь! Огромная просьба, поблагодарите релизера, оцените раздачу и оставьте свои комментарий, если Вы скачали Война и мир через торрент бесплатно! Внесите свою лепту в развитие PiratBit!
    Комментировать посты могут только пользователи прошедшие не сложную регистрацию
    Показать сообщения:    

    Война и мир через торрент
    Скачать бесплатно Война и мир
    Война и мир скачать торрент
    Война и мир смотреть онлайн
    Cкачать фильм Война и мир бесплатно
    Война и мир скачать торрент в хорошем качестве
    Война и мир смотреть онлайн бесплатно в хорошем качестве


    Вы не можете начинать темы
    Вы не можете отвечать на сообщения
    Вы не можете редактировать свои сообщения
    Вы не можете удалять свои сообщения
    Вы не можете голосовать в опросах
    Вы не можете прикреплять файлы к сообщениям
    Вы можете скачивать файлы