Ссылка на приватное зеркало всего за 1$. Внимание количество ограничено!!!

iTunes

iTunes

iTunes

1

iTunes

iTunes

iTunes

iTunes

iTunes

30
pack

$ от Little Big

ВАЖНО

!!Акция!!

Alien_RageХит недели

RePack

Resident Evil 21

ИГРА 18+

pack

RePack

jed

!!Акция!!

Alien_Rage

RePack

fifa19

RePack

Assassins Creed: Odyssey

RePack

NEED FOR SPEED™ PAYBACK

4 сезон

9 сезон

Бесстыжие 9 сезон

Все сериалы

все сериалы на PB.wtf

RePack

FAR CRY 5
  

Колония Дигнидад / Colonia (Флориан Галленбергер) [2015, триллер, драма, мелодрама, WEB-DL 720p, Дубляж] iTunes pb.wtf

Колония Дигнидад через торрент pb.wtf

Качают: 1 [ 0 KB/s ]
Размер: 3.7 GB | Добавлен: 4 года 2 мес. назад | Торрент скачан:164 раза
Скачать  

11-05-2016 11:46 Колония Дигнидад Скачать торрент  

Колония Дигнидад / Colonia
Год выпуска » 2015
Страна » Германия, Люксембург, Франция / Fred Films, Iris Productions, Majestic Filmproduktion, Rat Pack Filmproduktion GmbH
Жанр » Триллер, драма, мелодрама, история
Продолжительность » 01:49:53
Перевод » Дубляж - [Лицензия / iTunes]
Субтитры » Отсутствуют

В ролях
» Эмма Уотсон, Даниэль Брюль, Микаэл Нюквист, Риченда Кэри, Вики Крипс,Джинн Вернер, Джулиан Овенден, Август Цирнер,, Мартин Вуттке, Николас Барсофф

Режиссёр
» Карин Кусама

» Немецкий журналист Даниэль похищен в Чили тайной полицией и после немыслимых пыток отправлен в колонию «Дигнидад» — огромное поселение, выдающее себя за благотворительную коммуну, а на самом деле гнездо нацистов — беглецов из Третьего рейха. Колонию возглавляет бывший офицер вермахта, бесноватый проповедник Пауль Шефер, внушающий пастве пользу умерщвления плоти и бесплатного труда от заката до рассвета. В «Дигнидад» легко попасть, но обратной дороги нет. Здесь Даниэлю предстоит превратиться в раба и «материал» для бесчеловечных экспериментов.

• Качество » WEB-DL (720p)
• Формат » AVI
• Видео кодек » XviD
• Аудио кодек » AC3
• Видео » MPEG-4 AVC, 4100 Кбит/с, 1280x532, 23.976 fps
• Аудио » Русский (AC-3 / 6 ch / 384 kbps /16 bit / 48,0 КГц )
• Аудио » Английский (AC-3 / 6 ch / 640 kbps / 48,0 КГц / 16 bit)


Бюджет: $14 000 000
Сборы в России: $82 604
Дата мировой премьеры: 13 сентября 2015
Дата российской премьеры: 31 марта 2016, «Cinema Prestige»
Общее
Уникальный идентификатор : 203849747208273592033598499511453743511 (0x995C0881C9E797D1B300B625D155F997)
Полное имя : E:\Колония Дигнидад. 2O15.D(iTunes).WEB-DL.720p.mkv
Формат : Matroska
Версия формата : Version 2
Размер файла : 3,70 Гбайт
Продолжительность : 1 ч. 49 м.
Общий поток : 4815 Кбит/сек
Название фильма : -merci-
Дата кодирования : UTC 2016-05-11 03:36:07
Программа кодирования : mkvmerge v5.8.0 ('No Sleep / Pillow') built on Sep 2 2012 15:37:04
Библиотека кодирования : libebml v1.2.3 + libmatroska v1.3.0
DURATION : 01:49:58.272000000
NUMBER_OF_FRAMES : 206196
NUMBER_OF_BYTES : 316717056
_STATISTICS_WRITING_APP : mkvmerge v9.1.0 ('Little Earthquakes') 64bit
_STATISTICS_WRITING_DATE_UTC : 2016-05-10 23:00:09
_STATISTICS_TAGS : BPS DURATION NUMBER_OF_FRAMES NUMBER_OF_BYTES

Видео
Идентификатор : 1
Формат : AVC
Формат/Информация : Advanced Video Codec
Профиль формата : Main@L3.1
Параметр CABAC формата : Нет
Параметр ReFrames формата : 2 кадра
Идентификатор кодека : V_MPEG4/ISO/AVC
Продолжительность : 1 ч. 49 м.
Битрейт : 3951 Кбит/сек
Ширина : 1280 пикселей
Высота : 532 пикселя
Соотношение сторон : 2,40:1
Режим частоты кадров : Постоянный
Частота кадров : 23,976 кадра/сек
Цветовое пространство : YUV
Субдискретизация насыщенности : 4:2:0
Битовая глубина : 8 бит
Тип развёртки : Прогрессивная
Бит/(Пиксели*Кадры) : 0.242
Размер потока : 3,03 Гбайт (82%)
Заголовок : Колония Дигнидад. 2O15.WEB-DL.720p.x264.PLAYNOW[][VR56]
Язык : English
Default : Да
Forced : Нет
Основные цвета : BT.709
Характеристики трансфера : BT.709
Коэффициенты матрицы : BT.709

Аудио #1
Идентификатор : 2
Формат : AC-3
Формат/Информация : Audio Coding 3
Расширение режима : CM (complete main)
Параметр Endianness формата : Big
Идентификатор кодека : A_AC3
Продолжительность : 1 ч. 49 м.
Вид битрейта : Постоянный
Битрейт : 384 Кбит/сек
Каналы : 6 каналов
Расположение каналов : Front: L C R, Side: L R, LFE
Частота : 48,0 КГц
Битовая глубина : 16 бит
Метод сжатия : С потерями
Размер потока : 302 Мбайт (8%)
Заголовок : Dub (iTunes)
Язык : Russian
Default : Да
Forced : Нет

Аудио #2
Идентификатор : 3
Формат : AC-3
Формат/Информация : Audio Coding 3
Расширение режима : CM (complete main)
Параметр Endianness формата : Big
Идентификатор кодека : A_AC3
Продолжительность : 1 ч. 49 м.
Вид битрейта : Постоянный
Битрейт : 384 Кбит/сек
Каналы : 6 каналов
Расположение каналов : Front: L C R, Side: L R, LFE
Частота : 48,0 КГц
Битовая глубина : 16 бит
Метод сжатия : С потерями
Размер потока : 302 Мбайт (8%)
Заголовок : Eng
Язык : English
Default : Нет
Forced : Нет

Текст
Идентификатор : 4
Формат : UTF-8
Идентификатор кодека : S_TEXT/UTF8
Идентификатор кодека/Информация : UTF-8 Plain Text
Заголовок : eng
Язык : English
Default : Нет
Forced : Нет

Меню
00:00:00.000 : en:Chapter 1
00:12:00.720 : en:Chapter 2
00:20:21.220 : en:Chapter 3
00:29:54.793 : en:Chapter 4
00:40:16.414 : en:Chapter 5
00:53:45.222 : en:Chapter 6
01:00:05.602 : en:Chapter 7
01:13:43.419 : en:Chapter 8
01:23:27.002 : en:Chapter 9
01:31:10.465 : en:Chapter 10
01:44:28.262 : en:Chapter 11
[/code]
скриншот   скриншот   скриншот   скриншот   скриншот   скриншот  
pb.wtf



Скачать Колония Дигнидад через торрент http://i74.fastpic.ru/big/2015/1218/b5/c39d072d168dbcde95d1a17f670689b5.gif Скачать фильм Колония Дигнидад через торрент бесплантно в хорошем качестве В ролях » Эмма Уотсон, Даниэль Брюль, Микаэл Нюквист, Риченда Кэри, Вики Крипс,Джинн Вернер, Джулиан Овенден, Август Цирнер,, Мартин ... 9.8 10 9
Торрент: Зарегистрирован [2016-05-11 11:46] · скачан: 164 раз
Статус: √ проверено
Размер: 3.7 GB
Как cкачать? Как скачать Колония Дигнидад через торрент | qTorrent

% Раздел Тема Автор DL S | L
R.G. Resident & PiratVoice - Фильмы, Видео [ 1.46 GB ] Колония Дигнидад / Colonia [2015 WEB-DLRip-AVC ] От R.G.Resident White Smoke Скачать
2 | 2
Фильмы 2015 [DVDrip, WEB-DLRip, HDrip] [ 1.37 GB ] Колония Дигнидад / Colonia [2015 WEB-DLRip ] $-DRON-$ Скачать
1 | 0
Фильмы 2015 [DVDrip, WEB-DLRip, HDrip] [ 2.05 GB ] Колония Дигнидад / Colonia [2015 WEB-DLRip ] -Lexx- Скачать
1 | 2
Фильмы (WEB-DL 720p, 1080p) [ 3.99 GB ] Колония Дигнидад / Colonia [2015 WEB-DL 1080p ] -Lexx- Скачать
1 | 0

28-11-2019 20:33  

Отключить всю рекламу на сайте

11-05-2016 14:08 Колония Дигнидад Скачать торрент  

$-DRON-$, указываем что сэмпл с ави файла, не забываем.pb.wtf



11-05-2016 14:35 Колония Дигнидад Скачать торрент  

Познавательный фильмец pb.wtf



    Дорогой пользователь! Огромная просьба, поблагодарите релизера, оцените раздачу и оставьте свои комментарий, если Вы скачали Колония Дигнидад через торрент бесплатно! Внесите свою лепту в развитие PiratBit!
    Комментировать посты могут только пользователи прошедшие не сложную регистрацию
    Показать сообщения:    

    Колония Дигнидад через торрент
    Скачать бесплатно Колония Дигнидад
    Колония Дигнидад скачать торрент
    Колония Дигнидад смотреть онлайн
    Cкачать фильм Колония Дигнидад бесплатно
    Колония Дигнидад скачать торрент в хорошем качестве
    Колония Дигнидад смотреть онлайн бесплатно в хорошем качестве


    Вы не можете начинать темы
    Вы не можете отвечать на сообщения
    Вы не можете редактировать свои сообщения
    Вы не можете удалять свои сообщения
    Вы не можете голосовать в опросах
    Вы не можете прикреплять файлы к сообщениям
    Вы можете скачивать файлы