Присоединяйтесь к нам в Telegram!, здесь всегда актуальный адрес сайта, оперативная поддержка и многое другое!!

>

5.9

iTunes

7.4

iTunes

9.4

1 сезон

1

7.4

2 сезон

7.2

iTunes

7.3

1 сезон

13

6.1

iTunes

8.3

GOG

30

ULTIMATE

pack

9.9

Лицензия

ВАЖНО

ИГРА 18+

pack

7.3

RePack

MK11

7.7

RePack

jed

7.8

RePack

fifa19

8.5

RePack

RDR2

RePack

NEED FOR SPEED™ PAYBACK

5 сезон

9 сезон

Бесстыжие 9 сезон

Все сериалы

все сериалы на PB.wtf

RePack

FAR CRY 5

Anonymous, добрый вечер, мы катастрофически не успеваем собрать деньги на оплату серверов, помогите нам пожалуйста 5,10,15р., для нас важна любая помощь . В качестве благодарности мы отключим Вам всю рекламу на сайте (укажите свой ник в строку Ваше имя)!

×
  
Magnet ссылка

Lordi - The Riff [2013 г., Heavy Metal, BDRip 1080p] pb.wtf

Lordi - The Riff через торрент pb.wtf

Размер: 306 MB | Добавлен: 5 лет 6 мес. назад | Торрент скачан:25 раз
Смотреть онлайн Lordi - The Riff | Скачать    Ребята, помогите собрать деньги на оплату серверов!!!

11-05-2016 15:07 Lordi - The Riff Скачать торрент  

Lordi - The Riff
Год выпуска: 2013
Жанр: Heavy Metal
Продолжительность: 00:03:44
Качество: BDRip 1080p
Формат: MPEG4
Видео кодек: AVC
Аудио кодек:PCM
Видео: MPEG4 AVC, 1920x1080, 23,976 fps, 9435 kbps
Аудио#1:PCM 48,0 kHz, 2 ch, 1536 kbps
Общее
Идентификатор : 0 (0x0)
Полное имя : Lordi - The Riff 1080p.m2ts
Формат : BDAV
Формат/Информация : Blu-ray Video
Размер файла : 306 Мбайт
Продолжительность : 3 м. 44 с.
Режим общего битрейта : Переменный
Общий поток : 11,4 Мбит/сек
Максимальный общий битрейт : 48,0 Мбит/сек

Видео
Идентификатор : 4113 (0x1011)
Идентификатор меню : 1 (0x1)
Формат : AVC
Формат/Информация : Advanced Video Codec
Профиль формата : High@L4.0
Параметр CABAC формата : Да
Параметр ReFrames формата : 2 кадра
Идентификатор кодека : 27
Продолжительность : 3 м. 44 с.
Вид битрейта : Переменный
Битрейт : 9435 Кбит/сек
Максимальный битрейт : 10000 Кбит/сек
Ширина : 1920 пикселей
Высота : 1080 пикселей
Соотношение сторон : 16:9
Частота кадров : 23,976 кадра/сек
Цветовое пространство : YUV
Субдискретизация насыщенности : 4:2:0
Битовая глубина : 8 бит
Тип развёртки : Прогрессивная
Бит/(Пиксели*Кадры) : 0.190
Размер потока : 253 Мбайт (83%)

Аудио
Идентификатор : 4352 (0x1100)
Идентификатор меню : 1 (0x1)
Формат : PCM
Параметр Endianness формата : Big
Параметр Sign формата : Signed
Режим смешивания : Blu-ray
Идентификатор кодека : 128
Продолжительность : 3 м. 44 с.
Вид битрейта : Постоянный
Битрейт : 1536 Кбит/сек
Каналы : 2 канала
Расположение каналов : Front: L R
Частота : 48,0 КГц
Битовая глубина : 16 бит
Размер потока : 41,1 Мбайт (13%)
pb.wtf



Скачать Lordi - The Riff через торрент http://s019.radikal.ru/i642/1605/6b/04069e2ad90a.jpg Скачать, смотреть онлайн Lordi - The Riff [2013 г., Heavy Metal, BDRip 1080p] бесплантно в хорошем качестве Год выпуска: 2013Жанр: Heavy MetalПродолжительность: ... 5.5 10 2
Торрент: Зарегистрирован [2016-05-11 15:07] · скачан: 25 раз
Статус: √ проверено
Размер: 306 MB
Как cкачать? Как скачать Lordi - The Riff через торрент | UTorrent

% Раздел Тема Автор DL S | L
Порно фильмы с русским переводом [ 1.17 GB ] Анисса И Лола В Школе Медсестер / Anissa and Lola At The Nurses School [2014 Feature] (Anissa Kate Kiara Lord Lola Reve Vanda Lust Nesty DVDRip] закадровый sheker187 Скачать
1 | 0

28-11-2019 20:33  

Отключить всю рекламу на сайте

    Дорогой пользователь! Огромная просьба, поблагодарите релизера, оцените раздачу и оставьте свои комментарий, если Вы скачали Lordi - The Riff через торрент бесплатно!
    Комментировать посты могут только пользователи прошедшие не сложную регистрацию
    Показать сообщения:    

    Lordi - The Riff через торрент
    Скачать бесплатно Lordi - The Riff
    Lordi - The Riff скачать торрент
    Lordi - The Riff смотреть онлайн
    Cкачать фильм Lordi - The Riff бесплатно
    Lordi - The Riff скачать торрент в хорошем качестве
    Lordi - The Riff смотреть онлайн бесплатно в хорошем качестве


    Вы не можете начинать темы
    Вы не можете отвечать на сообщения
    Вы не можете редактировать свои сообщения
    Вы не можете удалять свои сообщения
    Вы не можете голосовать в опросах
    Вы не можете прикреплять файлы к сообщениям
    Вы можете скачивать файлы