новый адрес
Ссылка на приватное зеркало всего за 1$. Внимание количество ограничено!!!

iTunes

1+1

iTunes

мы

iTunes

1

iTunes

Чернобыль

iTunes

Ральф против интернета

Лицензия

ПШазам

Лицензия

Оно 2

Лицензия

30
pack

Вам бонус

ВАЖНО

!!Акция!!

Alien_RageХит недели

RePack

Resident Evil 21

ИГРА 18+

pack

RePack

jed

!!Акция!!

Alien_Rage

RePack

fifa19

RePack

Assassins Creed: Odyssey

RePack

NEED FOR SPEED™ PAYBACK

3 сезон

9 сезон

Бесстыжие 9 сезон

Все сериалы

все сериалы на PB.wtf

RePack

FAR CRY 5
Ребята, катастрофически не хватает 1900р. для оплаты серверов за Октябрь (всвязи с блокировками трафик упал в 3 раза), 1-2р., выручайте.
  

Срок жизни / Term Life (Питер Биллингсли) [2016, драма, криминал, WEB-DL 1080p] VO [datynet] (Без рекламы) pb.wtf

Срок жизни через торрент pb.wtf

Размер: 3.39 GB | Добавлен: 3 года 6 мес. назад | Торрент скачан:233 раза
Скачать  

11-05-2016 16:47 Срок жизни Скачать торрент  

Срок жизни / Term Life«A daughter out of options. A father out of time»

  • Год выхода: 2016
  • Жанр: драма, криминал
  • Страна: США
  • Продолжительность: 01:32:44
  • Перевод: Любительский (одноголосый) [datynet] Без рекламы
  • Cубтитры: русские, английские
  • Режиссер: Питер Биллингсли
  • В ролях:

    Джон Фавро (Jimmy Lincoln), Хейли Стайнфелд (Cate Barrow), Джонатан Бэнкс (Harper), Тараджи П. Хенсон (Samantha Thurman), Винс Вон (Nick Barrow), Аннабет Гиш (Lucy), Билл Пэкстон (Detective Keenan), Терренс Ховард (Sheriff Braydon), Мануэль Рульфо (Pedro), Хорди Молья (Victor Fuentes), Майк Эппс (Darryl Mosley), Сесиль Де Франс (Lucy)


  • Фильм рассказывает о персонаже по имени Ник Бэрроу, который планирует кражи, а потом продаёт эти проекты тому, кто больше заплатит. Но наступает чёрный день - один из замыслов Ника с треском проваливается, и теперь его смерти жаждут все, начиная с главарей мафии и заканчивая оборотнями в погонах.
    Поняв, что от судьбы не убежишь, герой решает сделать напоследок что-то хорошее - он страхует жизнь на миллион долларов, чтобы после смерти обеспечить свою дочь. Не учитывает Ник только одного - страховка начнет действовать лишь через 21 день, в течение которых герою необходимо оставаться в живых. А это в его ситуации совсем не просто.

  • Качество: WEB-DL 1080p
  • Формат: MKV
  • Видео кодек: AVC
  • Аудио кодек: AC3
  • Видео: AVC, 1916x796 (2.40:1), 4361 kbps, 23,976 fps, 0,119 bpp
  • Аудио №1: русский / AC3 / 5.1 / 48 kHz / 384 kbps / 16 bit |VO|
  • Аудио №2: английский / AC3 / 5.1 / 48 kHz / 384 kbps / 16 bit
  • Навигация по главам: есть

    Код:

    General
    Unique ID                                : 237148019545149255655911845622563270660 (0xB2690C15EA85F0D69435E8789E1CF004)
    Complete name                            : E:\Term.Life.2016.1080p.WEB-DL.H264.mkv
    Format                                   : Matroska
    Format version                           : Version 4 / Version 2
    File size                                : 3.39 GiB
    Duration                                 : 1h 32mn
    Overall bit rate                         : 5 234 Kbps
    Movie name                               : Term.Life.2016.1080p.WEB-DL.H264
    Encoded date                             : UTC 2016-05-11 14:32:04
    Writing application                      : mkvmerge v6.9.1 ('Blue Panther') 64bit built on Apr 18 2014 18:23:38
    Writing library                          : libebml v1.3.0 + libmatroska v1.4.1
    Attachment                               : Yes

    Video
    ID                                       : 1
    Format                                   : AVC
    Format/Info                              : Advanced Video Codec
    Format profile                           : High@L4.0
    Format settings, CABAC                   : Yes
    Format settings, ReFrames                : 5 frames
    Codec ID                                 : V_MPEG4/ISO/AVC
    Duration                                 : 1h 32mn
    Bit rate                                 : 4 362 Kbps
    Width                                    : 1 916 pixels
    Height                                   : 796 pixels
    Display aspect ratio                     : 2.40:1
    Frame rate                               : 23.976 fps
    Color space                              : YUV
    Chroma subsampling                       : 4:2:0
    Bit depth                                : 8 bits
    Scan type                                : Progressive
    Bits/(Pixel*Frame)                       : 0.119
    Stream size                              : 2.83 GiB (83%)
    Title                                    : Term Life (2016) WEB-DL 1080p
    Language                                 : English
    Default                                  : Yes
    Forced                                   : No
    Color primaries                          : BT.709-5, BT.1361, IEC 61966-2-4, SMPTE RP177
    Transfer characteristics                 : BT.709-5, BT.1361
    Matrix coefficients                      : BT.709-5, BT.1361, IEC 61966-2-4 709, SMPTE RP177

    Audio #1
    ID                                       : 2
    Format                                   : AC-3
    Format/Info                              : Audio Coding 3
    Mode extension                           : CM (complete main)
    Codec ID                                 : A_AC3
    Duration                                 : 1h 32mn
    Bit rate mode                            : Constant
    Bit rate                                 : 384 Kbps
    Channel(s)                               : 6 channels
    Channel positions                        : Front: L C R, Side: L R, LFE
    Sampling rate                            : 48.0 KHz
    Bit depth                                : 16 bits
    Compression mode                         : Lossy
    Stream size                              : 255 MiB (7%)
    Title                                    : datynet
    Language                                 : Russian
    Default                                  : Yes
    Forced                                   : No

    Audio #2
    ID                                       : 3
    Format                                   : AC-3
    Format/Info                              : Audio Coding 3
    Mode extension                           : CM (complete main)
    Codec ID                                 : A_AC3
    Duration                                 : 1h 32mn
    Bit rate mode                            : Constant
    Bit rate                                 : 384 Kbps
    Channel(s)                               : 6 channels
    Channel positions                        : Front: L C R, Side: L R, LFE
    Sampling rate                            : 48.0 KHz
    Bit depth                                : 16 bits
    Compression mode                         : Lossy
    Stream size                              : 255 MiB (7%)
    Title                                    : Original
    Language                                 : English
    Default                                  : No
    Forced                                   : No

    Text #1
    ID                                       : 4
    Format                                   : UTF-8
    Codec ID                                 : S_TEXT/UTF8
    Codec ID/Info                            : UTF-8 Plain Text
    Title                                    : SHCH
    Language                                 : Russian
    Default                                  : No
    Forced                                   : No

    Text #2
    ID                                       : 5
    Format                                   : UTF-8
    Codec ID                                 : S_TEXT/UTF8
    Codec ID/Info                            : UTF-8 Plain Text
    Title                                    : Full
    Language                                 : English
    Default                                  : No
    Forced                                   : No

    Menu
    00:00:00.000                             : en:00:00:00
    00:07:31.000                             : en:00:07:31
    00:13:05.000                             : en:00:13:05
    00:19:26.000                             : en:00:19:26
    00:24:39.000                             : en:00:24:39
    00:28:02.000                             : en:00:28:02
    00:32:50.000                             : en:00:32:50
    00:37:35.000                             : en:00:37:35
    00:42:13.000                             : en:00:42:13
    00:46:57.000                             : en:00:46:57
    00:50:43.000                             : en:00:50:43
    00:55:20.000                             : en:00:55:20
    00:58:38.000                             : en:00:58:38
    01:03:44.000                             : en:01:03:44
    01:07:58.000                             : en:01:07:58
    01:14:38.000                             : en:01:14:38
    01:19:46.000                             : en:01:19:46
    01:21:30.000                             : en:01:21:30
    01:25:30.000                             : en:01:25:30
    01:27:39.000                             : en:01:27:39

    Скриншоты:


    © Оформление by -Lexx- pb.wtf



  • Скачать Срок жизни через торрент http://pic.kartinco.top/images/6/stazu.jpg Скачать фильм Срок жизни через торрент бесплантно в хорошем качестве qw.png Фильм рассказывает о персонаже по имени Ник Бэрроу, который планирует кражи, а потом продаёт эти проекты тому, кто больше ... 10 10 9
    Торрент: Зарегистрирован [2016-05-11 16:47] · скачан: 233 раз
    Статус: T временная
    Размер: 3.39 GB
    Как cкачать? Как скачать Срок жизни через торрент | qTorrent

    % Раздел Тема Автор DL S | L
    Фильмы без перевода [ 25.14 GB ] Срок жизни / Term Life [2016 BD Remux [Оригинал] smaster Скачать
    1 | 0
    T Релизы по Парсеру [Игры, Сериалы и Фильмы и другое...] [ 9.82 GB ] Срок жизни / Term Life BDRip 1080p Ворон Скачать
    1 | 0
    Фильмы 2016 [DVDrip, WEB-DLRip, HDrip] (DUB, MVO) [ 1.45 GB ] Срок жизни / Term Life [2016 WEB-DLRip] MVO Ворон Скачать
    1 | 0
    T R.G. Resident & PiratVoice - Фильмы, Видео [ 1.46 GB ] Срок жизни / Term Life [2016 WEB-DLRip-AVC VO ] От R.G.Resident White Smoke Скачать
    1 | 0
    T Фильмы 2016 (Звук TS, Cam, VO, DVO) [ 1.45 GB ] Срок жизни / Term Life [2016 WEB-DLRip] VO [datynet] -Lexx- Скачать
    1 | 0
    Отключить всю рекламу на сайте

    11-05-2016 17:19 Срок жизни Скачать торрент  

    Спс посмотрим.pb.wtf
    K-Lexx- писал(а):

    Приятного просмотра.



      Дорогой пользователь! Огромная просьба, поблагодарите релизера, оцените раздачу и оставьте свои комментарий, если Вы скачали Срок жизни через торрент бесплатно! Внесите свою лепту в развитие PiratBit!
      Комментировать посты могут только пользователи прошедшие не сложную регистрацию
      Показать сообщения:    

      Срок жизни через торрент
      Скачать бесплатно Срок жизни
      Срок жизни скачать торрент
      Срок жизни смотреть онлайн
      Cкачать фильм Срок жизни бесплатно
      Срок жизни скачать торрент в хорошем качестве
      Срок жизни смотреть онлайн бесплатно в хорошем качестве


      Вы не можете начинать темы
      Вы не можете отвечать на сообщения
      Вы не можете редактировать свои сообщения
      Вы не можете удалять свои сообщения
      Вы не можете голосовать в опросах
      Вы не можете прикреплять файлы к сообщениям
      Вы можете скачивать файлы