>

7.4

iTunes

7.4

2 сезон

9.4

1 сезон

1

7.4

2 сезон

7.2

iTunes

6.0

MVO

13

6.1

iTunes

8.3

Пиратка

30

ULTIMATE

pack

9.9

Лицензия

ВАЖНО

ИГРА 18+

pack

7.3

RePack

MK11

7.7

RePack

jed

7.8

RePack

fifa19

8.5

RePack

RDR2

RePack

NEED FOR SPEED™ PAYBACK

1 сезон

9 сезон

Бесстыжие 9 сезон

Все сериалы

все сериалы на PB.wtf

RePack

FAR CRY 5

Anonymous, доброе утро, мы катастрофически не успеваем собрать деньги на оплату серверов, помогите нам пожалуйста 5,10,15р., для нас важна любая помощь . В качестве благодарности мы отключим Вам всю рекламу на сайте (укажите свой ник в строку Ваше имя)!

×
  
Magnet ссылка

Срок жизни / Term Life (Питер Биллингсли) [2016, драма, криминал, WEB-DLRip] VO [datynet] (Без рекламы) pb.wtf

Срок жизни через торрент pb.wtf

Размер: 1.45 GB | Добавлен: 5 лет 8 мес. назад | Торрент скачан:268 раз
Смотреть онлайн Срок жизни | Скачать    Ребята, помогите собрать деньги на оплату серверов!!!

11-05-2016 17:07 Срок жизни Скачать торрент  

Срок жизни / Term Life«A daughter out of options. A father out of time»

  • Год выхода: 2016
  • Жанр: драма, криминал
  • Страна: США
  • Продолжительность: 01:32:43
  • Перевод: Любительский (одноголосый) [datynet] Без рекламы
  • Режиссер: Питер Биллингсли
  • В ролях:

    Джон Фавро (Jimmy Lincoln), Хейли Стайнфелд (Cate Barrow), Джонатан Бэнкс (Harper), Тараджи П. Хенсон (Samantha Thurman), Винс Вон (Nick Barrow), Аннабет Гиш (Lucy), Билл Пэкстон (Detective Keenan), Терренс Ховард (Sheriff Braydon), Мануэль Рульфо (Pedro), Хорди Молья (Victor Fuentes), Майк Эппс (Darryl Mosley), Сесиль Де Франс (Lucy)


  • Фильм рассказывает о персонаже по имени Ник Бэрроу, который планирует кражи, а потом продаёт эти проекты тому, кто больше заплатит. Но наступает чёрный день - один из замыслов Ника с треском проваливается, и теперь его смерти жаждут все, начиная с главарей мафии и заканчивая оборотнями в погонах.
    Поняв, что от судьбы не убежишь, герой решает сделать напоследок что-то хорошее - он страхует жизнь на миллион долларов, чтобы после смерти обеспечить свою дочь. Не учитывает Ник только одного - страховка начнет действовать лишь через 21 день, в течение которых герою необходимо оставаться в живых. А это в его ситуации совсем не просто.

  • Качество: WEB-DLRip
  • Формат: AVI
  • Видео кодек: XviD
  • Аудио кодек: AC3
  • Видео: XviD, 720x304 (2.35:1), 1758 kbps, 23,976 fps, 0,335 bpp
  • Аудио: русский / AC3 / 5.1 / 48 kHz / 384 kbps / 16 bit

    Код:

    General
    Complete name                            : E:\Term.Life.2016.L1.WEB-DLRip.avi
    Format                                   : AVI
    Format/Info                              : Audio Video Interleave
    File size                                : 1.45 GiB
    Duration                                 : 1h 32mn
    Overall bit rate                         : 2 240 Kbps
    Writing application                      : VirtualDubMod 1.5.10.3 | www.virtualdub-fr.org || (build 2550/release)
    Writing library                          : VirtualDubMod build 2550/release

    Video
    ID                                       : 0
    Format                                   : MPEG-4 Visual
    Format profile                           : Advanced Simple@L5
    Format settings, BVOP                    : 1
    Format settings, QPel                    : No
    Format settings, GMC                     : No warppoints
    Format settings, Matrix                  : Custom
    Codec ID                                 : XVID
    Codec ID/Hint                            : XviD
    Duration                                 : 1h 32mn
    Bit rate                                 : 1 758 Kbps
    Width                                    : 720 pixels
    Height                                   : 304 pixels
    Display aspect ratio                     : 2.35:1
    Frame rate                               : 23.976 fps
    Color space                              : YUV
    Chroma subsampling                       : 4:2:0
    Bit depth                                : 8 bits
    Scan type                                : Progressive
    Compression mode                         : Lossy
    Bits/(Pixel*Frame)                       : 0.335
    Stream size                              : 1.14 GiB (78%)
    Writing library                          : XviD 73

    Audio
    ID                                       : 1
    Format                                   : AC-3
    Format/Info                              : Audio Coding 3
    Mode extension                           : CM (complete main)
    Codec ID                                 : 2000
    Duration                                 : 1h 32mn
    Bit rate mode                            : Constant
    Bit rate                                 : 384 Kbps
    Channel(s)                               : 6 channels
    Channel positions                        : Front: L C R, Side: L R, LFE
    Sampling rate                            : 48.0 KHz
    Bit depth                                : 16 bits
    Compression mode                         : Lossy
    Stream size                              : 255 MiB (17%)
    Alignment                                : Split accross interleaves

    Скриншоты:


    © Оформление by -Lexx- pb.wtf



  • Скачать Срок жизни через торрент https://pic1.kartinco.top/images/61/stazu.jpg Скачать, смотреть онлайн Срок жизни бесплантно в хорошем качестве qw.png Фильм рассказывает о персонаже по имени Ник Бэрроу, который планирует кражи, а потом продаёт эти проекты тому, кто больше ... 9.8 10 13
    Торрент: Зарегистрирован [2016-05-11 17:07] · скачан: 268 раз
    Статус: T временная
    Размер: 1.45 GB
    Как cкачать? Как скачать Срок жизни через торрент | UTorrent

    % Раздел Тема Автор DL S | L
    Фильмы без перевода [ 25.14 GB ] Срок жизни / Term Life [2016 BD Remux [Оригинал] smaster Скачать
    1 | 0
    T Релизы по Парсеру [Игры, Сериалы и Фильмы и другое...] [ 9.82 GB ] Срок жизни / Term Life BDRip 1080p Ворон Скачать
    1 | 0
    Фильмы 2016 [DVDrip, WEB-DLRip, HDrip] (DUB, MVO) [ 1.45 GB ] Срок жизни / Term Life [2016 WEB-DLRip] MVO Ворон Скачать
    1 | 0
    T R.G. Resident & PiratVoice - Фильмы, Видео [ 1.46 GB ] Срок жизни / Term Life [2016 WEB-DLRip-AVC VO ] От R.G.Resident White Smoke Скачать
    1 | 0
    T Фильмы (WEB-DL 720p, 1080p) [ 3.39 GB ] Срок жизни / Term Life [2016 WEB-DL 1080p] VO [datynet] -Lexx- Скачать
    1 | 0

    28-11-2019 20:33  

    Отключить всю рекламу на сайте

      Дорогой пользователь! Огромная просьба, поблагодарите релизера, оцените раздачу и оставьте свои комментарий, если Вы скачали Срок жизни через торрент бесплатно!
      Комментировать посты могут только пользователи прошедшие не сложную регистрацию
      Показать сообщения:    

      Срок жизни через торрент
      Скачать бесплатно Срок жизни
      Срок жизни скачать торрент
      Срок жизни смотреть онлайн
      Cкачать фильм Срок жизни бесплатно
      Срок жизни скачать торрент в хорошем качестве
      Срок жизни смотреть онлайн бесплатно в хорошем качестве


      Вы не можете начинать темы
      Вы не можете отвечать на сообщения
      Вы не можете редактировать свои сообщения
      Вы не можете удалять свои сообщения
      Вы не можете голосовать в опросах
      Вы не можете прикреплять файлы к сообщениям
      Вы можете скачивать файлы