Ссылка на приватное зеркало всего за 1$. Внимание количество ограничено!!!

iTunes

iTunes

iTunes

1

iTunes

iTunes

iTunes

iTunes

iTunes

30
pack

Новость дня

ВАЖНО

!!Акция!!

Alien_RageХит недели

RePack

Resident Evil 21

ИГРА 18+

pack

RePack

jed

!!Акция!!

Alien_Rage

RePack

fifa19

RePack

Assassins Creed: Odyssey

RePack

NEED FOR SPEED™ PAYBACK

4 сезон

9 сезон

Бесстыжие 9 сезон

Все сериалы

все сериалы на PB.wtf

RePack

FAR CRY 5
  

Хани мани / Honey Money (Арсен Агаджанян, Сурен Шахвердян, Артем Багдасарян) [2015, комедия, приключения, семейный, WEB-DLRip, Оригинал [iTunes] pb.wtf

Хани мани через торрент pb.wtf

Размер: 1.37 GB | Добавлен: 4 года назад | Торрент скачан:154 раза
Скачать  

12-05-2016 04:13 Хани мани Скачать торрент  


Хани мани / Honey Money
««искал я сны во снах своих...»»

ИНФОРМАЦИЯ:
Год выпуска:2015
Страна: Россия, Армения
Жанр: комедия, приключения, семейный
Продолжительность: 01:20:15
Перевод: Оригинал [iTunes]
Режиссер: Арсен Агаджанян, Сурен Шахвердян, Артем Багдасарян

В Ролях:


Айк Саргсян, Йонас Версецкас, Микаел Погосян, Давид Тадевосян, Арташес Алексаняан, Луиза Гамбарян

Описание:
Вилену Апресяну, заместителю главы Центрального банка, грозит увольнение, если через два дня прибывающий в страну руководитель международной кредитной организации не подпишет договор на выделение 50-миллионного транша. Ситуация безнадежная, и Вилена может спасти только чудо.


ТЕХ.ДАННЫЕ:
Качество: WEB-DLRip
Формат: AVI
Видео: XviD, 720x400 (16:9), 1949 kbps, 25 fps, 0,271 bpp
Аудио: AC3 / 5.1 / 48 kHz / 384 kbps / 16 bit


General
Complete name : E:\Раздачи\Xoni.Mani.2O16.WEB-DLRip.14OOMB.avi
Format : AVI
Format/Info : Audio Video Interleave
File size : 1.37 GiB
Duration : 1h 20mn
Overall bit rate : 2 438 Kbps
Writing application : VirtualDubMod 1.5.10.2 (build 2540/release)
Writing library : VirtualDubMod build 2540/release

Video
ID : 0
Format : MPEG-4 Visual
Format profile : Advanced Simple@L5
Format settings, BVOP : 2
Format settings, QPel : No
Format settings, GMC : No warppoints
Format settings, Matrix : Default (MPEG)
Codec ID : XVID
Codec ID/Hint : XviD
Duration : 1h 20mn
Bit rate : 1 949 Kbps
Width : 720 pixels
Height : 400 pixels
Display aspect ratio : 16:9
Frame rate : 25.000 fps
Color space : YUV
Chroma subsampling : 4:2:0
Bit depth : 8 bits
Scan type : Progressive
Compression mode : Lossy
Bits/(Pixel*Frame) : 0.271
Stream size : 1.09 GiB (80%)
Writing library : XviD 1.2.1 (UTC 2008-12-04)

Audio
ID : 1
Format : AC-3
Format/Info : Audio Coding 3
Mode extension : CM (complete main)
Codec ID : 2000
Duration : 1h 20mn
Bit rate mode : Constant
Bit rate : 384 Kbps
Channel(s) : 6 channels
Channel positions : Front: L C R, Side: L R, LFE
Sampling rate : 48.0 KHz
Bit depth : 16 bits
Compression mode : Lossy
Stream size : 220 MiB (16%)
Alignment : Split accross interleaves
Скриншоты:

© Оформление by .::Ворон::.
pb.wtf



Скачать Хани мани через торрент http://pic.kartinco.top/images/6/ordi9.jpg Скачать фильм Хани мани через торрент бесплантно в хорошем качестве Описание: Вилену Апресяну, заместителю главы Центрального банка, грозит увольнение, если через два дня прибывающий в страну руководитель ... 7.5 10 14
Торрент: Зарегистрирован [2016-05-12 04:13] · скачан: 154 раз
Статус: √ проверено
Размер: 1.37 GB
Как cкачать? Как скачать Хани мани через торрент | qTorrent

% Раздел Тема Автор DL S | L
Наши новые фильмы 2015 [ 747 MB ] Хани мани / Honey Money [2015 Россия Армения WEB-DLRip-AVC от sokol_ok] sokol_ok Скачать
2 | 0
Наши новые фильмы 2015 [ 1.46 GB ] Хани мани / Honey Money [2015 Россия Армения WEB-DLRip-AVC от sokol_ok] sokol_ok Скачать
2 | 0

28-11-2019 20:33  

Отключить всю рекламу на сайте

12-05-2016 10:12 Хани мани Скачать торрент  

Спасибо нажал , трейлера хватит !!!pb.wtf



09-08-2016 21:02 Хани мани Скачать торрент  

ян..нян...ян...нян...няш...мяш...ян...Если бы шведы жили в Армении то был бы Андерсонян, Нильсонян, Юхонсонян))))))))pb.wtf



    Дорогой пользователь! Огромная просьба, поблагодарите релизера, оцените раздачу и оставьте свои комментарий, если Вы скачали Хани мани через торрент бесплатно! Внесите свою лепту в развитие PiratBit!
    Комментировать посты могут только пользователи прошедшие не сложную регистрацию
    Показать сообщения:    

    Хани мани через торрент
    Скачать бесплатно Хани мани
    Хани мани скачать торрент
    Хани мани смотреть онлайн
    Cкачать фильм Хани мани бесплатно
    Хани мани скачать торрент в хорошем качестве
    Хани мани смотреть онлайн бесплатно в хорошем качестве


    Вы не можете начинать темы
    Вы не можете отвечать на сообщения
    Вы не можете редактировать свои сообщения
    Вы не можете удалять свои сообщения
    Вы не можете голосовать в опросах
    Вы не можете прикреплять файлы к сообщениям
    Вы можете скачивать файлы