MEGA SALE -50% FORZA HORIZON 4 ULTIMATE+ВСЕ DLC+ОНЛАЙН всего за 599р. 299 руб. (супер цена). Внимание количество ограничено!!!

iTunes

1+1

iTunes

мы

iTunes

1

iTunes

Чернобыль

iTunes

Ральф против интернета

Лицензия

ПШазам

Лицензия

Игра престолов

Лицензия

30
pack

ВАЖНО

!!Акция!!

Alien_RageХит недели

RePack

Resident Evil 21

ИГРА 18+

pack

RePack

Metro:Exodus

!!Акция!!

Alien_Rage

RePack

fifa19

RePack

Assassins Creed: Odyssey

RePack

NEED FOR SPEED™ PAYBACK

3 сезон

9 сезон

Бесстыжие 9 сезон

Все сериалы

все сериалы на PB.wtf

RePack

FAR CRY 5
Ребята, катастрофически не хватает 7730р. для оплаты серверов за АВГУСТ (всвязи с блокировками трафик упал в 3 раза), 1-2р., выручайте.
  

Папа Гринвич-Виллидж / The Pope of Greenwich Village (Стюарт Розенберг) [1984 г., боевик, драма, комедия, криминал, BDRip-AVC] DVO, AVO pb.wtf

Папа Гринвич-Виллидж через торрент pb.wtf

Размер: 2.18 GB | Добавлен: 3 года 4 мес. назад | Торрент скачан:8 раз
Скачать  

13-05-2016 07:55 Папа Гринвич-Виллидж Скачать торрент  

Папа Гринвич-Виллидж / The Pope of Greenwich Village
Год выпуска: 1984
Страна: США
Жанр: боевик, драма, комедия, криминал
Продолжительность: 02:00:38

Перевод №1: Профессиональный (двухголосый закадровый) НТВ+
Перевод №2: Авторский (одноголосый закадровый) А. Пронин
Субтитры: английские

Режиссер: Стюарт Розенберг
Продюссер: Джин Кирквуд, Хоук Кох, Бенжамин Розенберг
Сценарий: Винсент Патрик

Бюджет: $8 000 000
Премьера в мире: 22 июня 1984

IMDB 6.70 (5700)



В ролях: Эрик Робертс, Микки Рурк, Дэрил Ханна, Джеральдин Пейдж, Кеннет МакМиллан, Тони Мусанте, М. Эммет Уолш, Берт Янг, Джек Кихоу, Филип Боско

Описание: Поли и Чарли были друзьями детства. Чарли не раз вытаскивал своего приятеля из всяческих дерьмовых историй, и не случайно однажды именно он решил организовать ограбление одной частной фирмы, чтобы доказать Чарли наличие у себя кое-каких способностей. Поли умолчал об одном — о том, что избранная им фирма служила лишь ширмой-прикрытием для махинаций местного мафиози «Постельного Клопа» Эдди...

Качество: BDRip-AVC
Формат: MKV
Видео кодек: H.264
Аудио кодек: AC3
Видео: AVC, 1024x556 (16:9), 23.976 fps, 2 006 Kbps (0.147 bit/pixel)
Аудио #1: AC-3, 48.0 KHz, 2 ch, 192 Kbps, CBR (Russian)
Аудио #2: AC-3, 48.0 KHz, 2 ch, 192 Kbps, CBR (Russian)
Аудио #3: AC-3, 48.0 KHz, 2 ch, 192 Kbps, CBR (English)
Формат субтитров: softsub (SRT)

Общее
Уникальный идентификатор : 197720543508135665130231714317374073835 (0x94BF976EEC01380A9F0B06A5FDDC2BEB)
Формат : Matroska
Версия формата : Version 4 / Version 2
Размер файла : 2,18 Гбайт
Продолжительность : 2 ч. 0 м.
Общий поток : 2584 Кбит/сек
Дата кодирования : UTC 2016-05-13 05:53:29
Программа кодирования : mkvmerge v9.1.0 ('Little Earthquakes') 64bit
Библиотека кодирования : libebml v1.3.3 + libmatroska v1.4.4

Видео
Идентификатор : 1
Формат : AVC
Формат/Информация : Advanced Video Codec
Профиль формата : High@L4.1
Параметр CABAC формата : Да
Параметр ReFrames формата : 14 кадров
Идентификатор кодека : V_MPEG4/ISO/AVC
Продолжительность : 2 ч. 0 м.
Битрейт : 2006 Кбит/сек
Ширина : 1024 пикселя
Высота : 556 пикселей
Соотношение сторон : 1,85:1
Режим частоты кадров : Постоянный
Частота кадров : 23,976 (24000/1001) кадра/сек
Цветовое пространство : YUV
Субдискретизация насыщенности : 4:2:0
Битовая глубина : 8 бит
Тип развёртки : Прогрессивная
Бит/(Пиксели*Кадры) : 0.147
Размер потока : 1,69 Гбайт (78%)
Библиотека кодирования : x264 core 148 r2638 7599210
Настройки программы : cabac=1 / ref=14 / deblock=1:0:0 / analyse=0x3:0x133 / me=umh / subme=10 / psy=1 / psy_rd=1.00:0.00 / mixed_ref=1 / me_range=32 / chroma_me=1 / trellis=2 / 8x8dct=1 / cqm=0 / deadzone=21,11 / fast_pskip=1 / chroma_qp_offset=-2 / threads=6 / lookahead_threads=1 / sliced_threads=0 / nr=0 / decimate=1 / interlaced=0 / bluray_compat=0 / constrained_intra=0 / bframes=10 / b_pyramid=2 / b_adapt=2 / b_bias=0 / direct=3 / weightb=1 / open_gop=0 / weightp=2 / keyint=240 / keyint_min=23 / scenecut=40 / intra_refresh=0 / rc_lookahead=60 / rc=2pass / mbtree=0 / bitrate=2006 / ratetol=1.0 / qcomp=0.60 / qpmin=0 / qpmax=69 / qpstep=4 / cplxblur=20.0 / qblur=0.5 / vbv_maxrate=62500 / vbv_bufsize=78125 / nal_hrd=none / filler=0 / ip_ratio=1.40 / pb_ratio=1.30 / aq=1:1.00
Default : Да
Forced : Нет

Аудио #1
Идентификатор : 2
Формат : AC-3
Формат/Информация : Audio Coding 3
Расширение режима : CM (complete main)
Параметр Endianness формата : Big
Идентификатор кодека : A_AC3
Продолжительность : 2 ч. 0 м.
Вид битрейта : Постоянный
Битрейт : 192 Кбит/сек
Каналы : 2 канала
Расположение каналов : Front: L R
Частота : 48,0 КГц
Частота кадров : 31,250 кадров/сек (1536 spf)
Метод сжатия : С потерями
Размер потока : 166 Мбайт (7%)
Заголовок : Russian_DVO
Язык : Russian
Default : Да
Forced : Нет

Аудио #2
Идентификатор : 3
Формат : AC-3
Формат/Информация : Audio Coding 3
Расширение режима : CM (complete main)
Параметр Endianness формата : Big
Идентификатор кодека : A_AC3
Продолжительность : 2 ч. 0 м.
Вид битрейта : Постоянный
Битрейт : 192 Кбит/сек
Каналы : 2 канала
Расположение каналов : Front: L R
Частота : 48,0 КГц
Частота кадров : 31,250 кадров/сек (1536 spf)
Метод сжатия : С потерями
Размер потока : 166 Мбайт (7%)
Заголовок : Russian_AVO
Язык : Russian
Default : Нет
Forced : Нет

Аудио #3
Идентификатор : 4
Формат : AC-3
Формат/Информация : Audio Coding 3
Расширение режима : CM (complete main)
Параметр Endianness формата : Big
Идентификатор кодека : A_AC3
Продолжительность : 2 ч. 0 м.
Вид битрейта : Постоянный
Битрейт : 192 Кбит/сек
Каналы : 2 канала
Расположение каналов : Front: L R
Частота : 48,0 КГц
Частота кадров : 31,250 кадров/сек (1536 spf)
Метод сжатия : С потерями
Размер потока : 166 Мбайт (7%)
Заголовок : Eglish
Язык : English
Default : Нет
Forced : Нет

Текст
Идентификатор : 5
Формат : UTF-8
Идентификатор кодека : S_TEXT/UTF8
Идентификатор кодека/Информация : UTF-8 Plain Text
Продолжительность : 1 ч. 59 м.
Битрейт : 70 бит/сек
Count of elements : 1652
Размер потока : 62,2 Кбайт (0%)
Заголовок : English
Язык : English
Default : Да
Forced : Нет

Папа Гринвич-Виллидж скачать торрент

pb.wtf



Скачать Папа Гринвич-Виллидж через торрент http://i6.imageban.ru/out/2016/05/13/d43db6dba8746cb3c8229a51b56bd34f.png Скачать фильм Папа Гринвич-Виллидж через торрент бесплантно в хорошем качестве Описание: Поли и Чарли были друзьями детства. Чарли не раз вытаскивал своего приятеля из всяческих дерьмовых историй, и не случайно однажды ... 10 10 1
Торрент: Зарегистрирован [2016-05-13 07:55] · скачан: 8 раз
Статус: √ проверено
Размер: 2.18 GB
Как cкачать? Как скачать Папа Гринвич-Виллидж через торрент | qTorrent


>> Регистрируемся здесь <<






Отзывы и комментарии о схеме читаем и пишем здесь: ---> Отзывы и комментарии о схеме

Новые благодарочки в телеграм довольных пользователей:
скриншот   скриншот   скриншот   скриншот   скриншот
    Дорогой пользователь! Огромная просьба, поблагодарите релизера, оцените раздачу и оставьте свои комментарий, если Вы скачали Папа Гринвич-Виллидж через торрент бесплатно! Внесите свою лепту в развитие PiratBit!
    Комментировать посты могут только пользователи прошедшие не сложную регистрацию
    Показать сообщения:    

    Папа Гринвич-Виллидж через торрент
    Скачать бесплатно Папа Гринвич-Виллидж
    Папа Гринвич-Виллидж скачать торрент
    Папа Гринвич-Виллидж смотреть онлайн
    Cкачать фильм Папа Гринвич-Виллидж бесплатно
    Папа Гринвич-Виллидж скачать торрент в хорошем качестве
    Папа Гринвич-Виллидж смотреть онлайн бесплатно в хорошем качестве


    Вы не можете начинать темы
    Вы не можете отвечать на сообщения
    Вы не можете редактировать свои сообщения
    Вы не можете удалять свои сообщения
    Вы не можете голосовать в опросах
    Вы не можете прикреплять файлы к сообщениям
    Вы можете скачивать файлы