Ссылка на приватное зеркало всего за 1$. Внимание количество ограничено!!!

iTunes

iTunes

iTunes

1

iTunes

iTunes

iTunes

WEBRip

iTunes

30
pack

$ от Little Big

ВАЖНО

!!Акция!!

Alien_RageХит недели

RePack

Resident Evil 21

ИГРА 18+

pack

RePack

jed

!!Акция!!

Alien_Rage

RePack

fifa19

RePack

Assassins Creed: Odyssey

RePack

NEED FOR SPEED™ PAYBACK

4 сезон

9 сезон

Бесстыжие 9 сезон

Все сериалы

все сериалы на PB.wtf

RePack

FAR CRY 5
  

Жизнь на двоих (Ольга Орехова) [2009, Украина, драма, детектив, HDTVRip-AVC от sokol_ok] pb.wtf

Жизнь на двоих через торрент pb.wtf

Раздают: 1 [ 0 KB/s ]
Размер: 1.46 GB | Добавлен: 4 года 2 мес. назад | Торрент скачан:23 раза
Скачать  

13-05-2016 12:34 Жизнь на двоих Скачать торрент  

Жизнь на двоих


Страна: Украина
Жанр: драма, детектив
Год выпуска: 2009
Продолжительность: 01:20:07

Перевод: Не требуется (русский)
Cубтитры: нет
Оригинальная аудиодорожка: русский

Режиссер: Ольга Орехова

В ролях: Оксана Васильева, Константин Костышин, Анна Слынько, Павел Трубинер, Олег Харитонов, Виктор Щур, Олег Драч, Наталья Морозова, Владимир Кузнецов, Миша Хоменко, Нина Антонова, Егор Баринов

Описание:
В лесополосе найдено тело молодой женщины. Его невозможно опознать: лицо и одна рука были обезображены кислотой. Рядом лежат два паспорта, но это не проясняет ситуацию...
Три бывших одноклассника - следователь Михаил, бизнесмен Максим и банкир Вячеслав - близкие друзья. Вячеслав приглашает Михаила и Максима на свою свадьбу, где и представляет им молодую жену Юлю. Неожиданно Михаил узнает в ней девушку с фотографии в паспорте, найденном возле убитой. Юля признается, что у нее есть беспутная сестра-близнец Ульяна, которой она стыдится, и, скорее всего, погибла именно она. Но, сняв отпечатки пальцев с уцелевшей руки убитой, следствие обнаруживает, что жертва преступления - вовсе не Ульяна.
Расследование не прекращается: ведь у многих героев этой истории совесть не чиста... Релиз:

Автор рипа: Stalker oK

Сэмпл

Качество видео: HDTVRip-AVC [HDTV / 1080i]
Формат видео: MKV
Видео кодек: AVC
Аудио кодек: AC3
Видео: 2412 Кбит/сек, 1114x628 (16:9), 25 кадр/сек, AVC
Аудио: русский, 192 Кбит/сек, 48 КГц, 16 бит, 2.0, AC3

Общее
Уникальный идентификатор : 216902223017168767515208800848953863452 (0xA32DD93FE67F146692B4384A9E3DED1C)
Полное имя : M:\1WEB-DL\Zhizn na dvoih\Zhizn.na.dvoih.2009.HDTVRip-AVC.1.45Gb.stalkerok.new-team.mkv
Формат : Matroska
Версия формата : Version 4 / Version 2
Размер файла : 1,46 Гбайт
Продолжительность : 1 ч. 20 м.
Общий поток : 2605 Кбит/сек
Название фильма : Жизнь на двоих (2009) (New-Team) (Rip by Stalker oK)
Дата кодирования : UTC 2016-05-13 12:28:31
Программа кодирования : mkvmerge v8.6.1 ('Flying') 64bit
Библиотека кодирования : libebml v1.3.3 + libmatroska v1.4.4

Видео
Идентификатор : 1
Формат : AVC
Формат/Информация : Advanced Video Codec
Профиль формата : High@L4.1
Параметр CABAC формата : Да
Параметр ReFrames формата : 11 кадров
Идентификатор кодека : V_MPEG4/ISO/AVC
Продолжительность : 1 ч. 20 м.
Битрейт : 2412 Кбит/сек
Ширина : 1114 пикселей
Высота : 628 пикселей
Соотношение сторон : 16:9
Режим частоты кадров : Постоянный
Частота кадров : 25,000 кадров/сек
Цветовое пространство : YUV
Субдискретизация насыщенности : 4:2:0
Битовая глубина : 8 бит
Тип развёртки : Прогрессивная
Бит/(Пиксели*Кадры) : 0.138
Размер потока : 1,35 Гбайт (93%)
Заголовок : Жизнь на двоих (2009) (New-Team) (Rip by Stalker oK)
Библиотека кодирования : x264 core 148 r2665kMod a01e339
Настройки программы : cabac=1 / ref=11 / deblock=1:-3:-2 / analyse=0x3:0x133 / me=umh / subme=10 / psy=1 / fade_compensate=0.00 / psy_rd=1.00:0.02 / mixed_ref=1 / me_range=32 / chroma_me=1 / trellis=2 / 8x8dct=1 / cqm=0 / deadzone=21,11 / fast_pskip=0 / chroma_qp_offset=-3 / threads=12 / lookahead_threads=3 / sliced_threads=0 / nr=0 / decimate=0 / interlaced=0 / bluray_compat=0 / constrained_intra=0 / fgo=0 / bframes=14 / b_pyramid=2 / b_adapt=2 / b_bias=0 / direct=3 / weightb=1 / open_gop=0 / weightp=2 / keyint=250 / keyint_min=25 / scenecut=40 / intra_refresh=0 / rc_lookahead=60 / rc=2pass / mbtree=0 / bitrate=2412 / ratetol=1.0 / qcomp=0.65 / qpmin=0 / qpmax=69 / qpstep=4 / cplxblur=20.0 / qblur=0.5 / vbv_maxrate=50000 / vbv_bufsize=62500 / nal_hrd=none / filler=0 / ip_ratio=1.40 / pb_ratio=1.30 / aq=1:0.80
Default : Да
Forced : Нет

Аудио
Идентификатор : 2
Формат : AC-3
Формат/Информация : Audio Coding 3
Расширение режима : CM (complete main)
Параметр Endianness формата : Big
Идентификатор кодека : A_AC3
Продолжительность : 1 ч. 20 м.
Вид битрейта : Постоянный
Битрейт : 192 Кбит/сек
Каналы : 2 канала
Расположение каналов : Front: L R
Частота : 48,0 КГц
Частота кадров : 31,250 кадров/сек (1536 spf)
Метод сжатия : С потерями
Размер потока : 110 Мбайт (7%)
Язык : Russian
Default : Да
Forced : Нет
pb.wtf



Скачать Жизнь на двоих через торрент http://i72.fastpic.ru/big/2015/0531/46/68ef8a2783b58e5344cc30bbd3f1b046.png Скачать фильм Жизнь на двоих через торрент бесплантно в хорошем качестве Описание:В лесополосе найдено тело молодой женщины. Его невозможно опознать: лицо и одна рука были обезображены кислотой. Рядом лежат два ... 10 10 1
Info! Золотая раздача, скачанное не засчитывается.
Торрент: Зарегистрирован [2016-05-13 12:34] · скачан: 23 раз
Статус: √ проверено
Размер: 1.46 GB
Как cкачать? Как скачать Жизнь на двоих через торрент | qTorrent

% Раздел Тема Автор DL S | L
Наши сериалы [ 10.58 GB ] Одна жизнь на двоих / Чёрно-белый танец / Сезон: 1 / Серии: 1-16 из 16 [2018 Семейная сага WEB-DLRip-AVC] bober100 Скачать
1 | 0
Наши сериалы [ 10.15 GB ] Одна жизнь на двоих / Чёрно-белый танец / Сезон: 1 / Серии: 1-16 из 16 [2018 Семейная сага WEB-DLRip] bober100 Скачать
1 | 0
Наши сериалы [ 10.89 GB ] Одна жизнь на двоих / Серия 1-16 из 16 [2018 Семейная сага SATRip] oleg8 Скачать
1 | 0
Наши сериалы [ 10.82 GB ] Одна жизнь на двоих / Серии: 1-16 из 16 [2018 экранизация SATRip-AVC] aleksan55 Скачать
1 | 0
Наши фильмы, до 2010 [ 746 MB ] Жизнь на двоих [2009 Украина HDTVRip-AVC от sokol_ok] sokol_ok Скачать
3 | 0
Наши фильмы, до 2010 [ 1.36 GB ] Жизнь на двоих [2009 DVDRip] -=Cherry=- Скачать
1 | 0


Последний раз редактировалось: sokol_ok (2016-05-13 15:17), всего редактировалось 1 раз

28-11-2019 20:33  

Отключить всю рекламу на сайте

13-05-2016 12:47 Жизнь на двоих Скачать торрент  

sokol_ok писал(а):

Страна: Украина

Если считаете нужным перекиньте в другой раздел.pb.wtf



    Дорогой пользователь! Огромная просьба, поблагодарите релизера, оцените раздачу и оставьте свои комментарий, если Вы скачали Жизнь на двоих через торрент бесплатно! Внесите свою лепту в развитие PiratBit!
    Комментировать посты могут только пользователи прошедшие не сложную регистрацию
    Показать сообщения:    

    Жизнь на двоих через торрент
    Скачать бесплатно Жизнь на двоих
    Жизнь на двоих скачать торрент
    Жизнь на двоих смотреть онлайн
    Cкачать фильм Жизнь на двоих бесплатно
    Жизнь на двоих скачать торрент в хорошем качестве
    Жизнь на двоих смотреть онлайн бесплатно в хорошем качестве


    Вы не можете начинать темы
    Вы не можете отвечать на сообщения
    Вы не можете редактировать свои сообщения
    Вы не можете удалять свои сообщения
    Вы не можете голосовать в опросах
    Вы не можете прикреплять файлы к сообщениям
    Вы можете скачивать файлы