2 сезон

iTunes

1 сезон

1

iTunes

iTunes

iTunes

1 сезон

RePack

30

ИГРА 18+

pack

ВАЖНО

!!Акция!!

Alien_RageХит недели

RePack

MK11
pack

Забери бонус

RePack

jed

!!Акция!!

Alien_Rage

RePack

fifa19

RePack

Assassins Creed: Odyssey

RePack

NEED FOR SPEED™ PAYBACK

4 сезон

9 сезон

Бесстыжие 9 сезон

Все сериалы

все сериалы на PB.wtf

RePack

FAR CRY 5
  

Чернокнижник / Warlock (Стив Майнер) [1989, фэнтези, триллер, приключения, BDRip 1080p by msltel] DUB, MVO, 3 x AVO, 2 x VO pb.wtf

Чернокнижник через торрент pb.wtf

Размер: 15.03 GB | Добавлен: 4 года 5 мес. назад | Торрент скачан:19 раз
Скачать  

13-05-2016 13:47 Чернокнижник Скачать торрент  

Название: Чернокнижник
Оригинальное название: Warlock
Год выпуска: 1989
Страна: США
Жанр: фэнтези, триллер, приключения
Продолжительность: 01:43:17
Перевод: дублированный, профессиональный многоголосый, авторский, любительский одноголосый

Режиссёр: Стив Майнер

В ролях: Джулиан Сэндс, Лори Сингер, Ричард Э. Грант, Мэри Воронов, Кевин О`Брайэн, Ричард Касс, Аллан Миллер, Анна Левайн-Томпсон, Дэвид Карпентер, Кей Катер

Описание: Бостон. 1691 год. До казни самого могущественного колдуна-чернокнижника Нового Света остается лишь несколько часов. Но сам дьявол освобождает своего ученика из заточения и переносит его на триста лет вперёд, через пространство и время, в современный Лос-Анджелес. Здесь чернокнижник должен найти и соединить три части Великого Гримуара, сатанинской Библии, и раскрыть тайное имя Господа. После чего Земля окажется во власти дьявола. Но на его пути встаёт охотник на ведьм Жиль Редферн, предавший чернокнижника суду Господню в средневековой Новой Англии и перенесшийся вслед за ним в современный Лос-Анджелес...



Качество: BDRip 1080p Сравнение с исходником
Формат: MKV
Видео: MPEG-4 AVC, 15.2 Mбит/с, 1920x1040, 23,976 кадра/с
Аудио 1: русский, AC3, 256 kbps, 2 ch, 48 kHz [дублированный]
Аудио 2: русский, AC3, 192 kbps, 2 ch, 48 kHz [профессиональный многоголосый, OPT]
Аудио 3: русский, DTS, 1509 kbps, 2 ch, 48 kHz [авторский, Вартан Дохалов]

Внешние файлы
Аудио: русский, AC3, 192 kbps, 2 ch, 48 kHz [авторский, Андрей Дольский]
Аудио: русский, AC3, 192 kbps, 2 ch, 48 kHz [авторский, Антон Карповский]
Аудио: русский, DTS, 1509 kbps, 2 ch, 48 kHz [профессиональный одноголосый, Н.Жучков]
Аудио: русский, AC3, 192 kbps, 2 ch, 48 kHz [любительский одноголосый, Петербуржец]
Аудио: английский, DTS, 1509 kbps, 2 ch, 48 kHz [оригинал]
Субтитры: русские
Субтитры: английские
Общее
Полное имя : D:\Video\Чернокнижник.1989.BDRip.1080p\Чернокнижник.1989.AVO.rus.А.Дольский.ac3
Формат : AC-3
Формат/Информация : Audio Coding 3
Размер файла : 142 Мбайт
Продолжительность : 1 ч. 43 м.
Режим общего битрейта : Постоянный
Общий поток : 192 Кбит/сек

Аудио
Формат : AC-3
Формат/Информация : Audio Coding 3
Расширение режима : CM (complete main)
Параметр Endianness формата : Big
Продолжительность : 1 ч. 43 м.
Вид битрейта : Постоянный
Битрейт : 192 Кбит/сек
Каналы : 2 канала
Расположение каналов : Front: L R
Частота : 48,0 КГц
Частота кадров : 31,250 кадров/сек (1536 spf)
Метод сжатия : С потерями
Размер потока : 142 Мбайт (100%)

Общее
Полное имя : D:\Video\Чернокнижник.1989.BDRip.1080p\Чернокнижник.1989.AVO.rus.А.Карповский.ac3
Формат : AC-3
Формат/Информация : Audio Coding 3
Размер файла : 142 Мбайт
Продолжительность : 1 ч. 43 м.
Режим общего битрейта : Постоянный
Общий поток : 192 Кбит/сек

Аудио
Формат : AC-3
Формат/Информация : Audio Coding 3
Расширение режима : CM (complete main)
Параметр Endianness формата : Big
Продолжительность : 1 ч. 43 м.
Вид битрейта : Постоянный
Битрейт : 192 Кбит/сек
Каналы : 2 канала
Расположение каналов : Front: L R
Частота : 48,0 КГц
Частота кадров : 31,250 кадров/сек (1536 spf)
Метод сжатия : С потерями
Размер потока : 142 Мбайт (100%)

Общее
Уникальный идентификатор : 201690781371919421574763512690017589476 (0x97BC3B45E2731732BDE99171EC5858E4)
Полное имя : D:\Video\Чернокнижник.1989.BDRip.1080p\Чернокнижник.1989.BDRip.1080p.mkv
Формат : Matroska
Версия формата : Version 4 / Version 2
Размер файла : 12,4 Гбайт
Продолжительность : 1 ч. 43 м.
Общий поток : 17,2 Мбит/сек
Дата кодирования : UTC 2016-05-13 09:43:22
Программа кодирования : mkvmerge v8.2.0 ('World of Adventure') 64bit
Библиотека кодирования : libebml v1.3.1 + libmatroska v1.4.2

Видео
Идентификатор : 1
Формат : AVC
Формат/Информация : Advanced Video Codec
Профиль формата : High@L4.1
Параметр CABAC формата : Да
Параметр ReFrames формата : 4 кадра
Идентификатор кодека : V_MPEG4/ISO/AVC
Продолжительность : 1 ч. 43 м.
Битрейт : 15,2 Мбит/сек
Ширина : 1920 пикселей
Высота : 1040 пикселей
Соотношение сторон : 1,85:1
Режим частоты кадров : Постоянный
Частота кадров : 23,976 (24000/1001) кадра/сек
Цветовое пространство : YUV
Субдискретизация насыщенности : 4:2:0
Битовая глубина : 8 бит
Тип развёртки : Прогрессивная
Бит/(Пиксели*Кадры) : 0.318
Размер потока : 11,0 Гбайт (89%)
Библиотека кодирования : x264 core 146 r2538 121396c
Настройки программы : cabac=1 / ref=4 / deblock=1:-3:-3 / analyse=0x3:0x113 / me=umh / subme=10 / psy=1 / psy_rd=1.00:0.15 / mixed_ref=1 / me_range=32 / chroma_me=1 / trellis=2 / 8x8dct=1 / cqm=0 / deadzone=21,11 / fast_pskip=1 / chroma_qp_offset=-3 / threads=6 / lookahead_threads=1 / sliced_threads=0 / nr=0 / decimate=1 / interlaced=0 / bluray_compat=0 / constrained_intra=0 / bframes=6 / b_pyramid=2 / b_adapt=2 / b_bias=0 / direct=1 / weightb=1 / open_gop=0 / weightp=2 / keyint=230 / keyint_min=23 / scenecut=40 / intra_refresh=0 / rc_lookahead=40 / rc=crf / mbtree=0 / crf=18.0 / qcomp=0.60 / qpmin=0 / qpmax=69 / qpstep=4 / vbv_maxrate=40000 / vbv_bufsize=50000 / crf_max=0.0 / nal_hrd=none / filler=0 / ip_ratio=1.40 / pb_ratio=1.30 / aq=1:1.00
Язык : English
Default : Да
Forced : Нет

Аудио #1
Идентификатор : 2
Формат : AC-3
Формат/Информация : Audio Coding 3
Профиль формата : Dolby Digital
Расширение режима : CM (complete main)
Параметр Endianness формата : Big
Идентификатор кодека : A_AC3
Продолжительность : 1 ч. 43 м.
Вид битрейта : Постоянный
Битрейт : 256 Кбит/сек
Каналы : 2 канала
Расположение каналов : Front: L R
Частота : 48,0 КГц
Частота кадров : 31,250 кадров/сек (1536 spf)
Метод сжатия : С потерями
Размер потока : 189 Мбайт (1%)
Заголовок : DUB
Язык : Russian
Default : Да
Forced : Нет

Аудио #2
Идентификатор : 3
Формат : AC-3
Формат/Информация : Audio Coding 3
Расширение режима : CM (complete main)
Параметр Endianness формата : Big
Идентификатор кодека : A_AC3
Продолжительность : 1 ч. 43 м.
Вид битрейта : Постоянный
Битрейт : 192 Кбит/сек
Каналы : 2 канала
Расположение каналов : Front: L R
Частота : 48,0 КГц
Частота кадров : 31,250 кадров/сек (1536 spf)
Метод сжатия : С потерями
Размер потока : 142 Мбайт (1%)
Заголовок : MVO (OPT)
Язык : Russian
Default : Нет
Forced : Нет

Аудио #3
Идентификатор : 4
Формат : DTS
Формат/Информация : Digital Theater Systems
Режим : 16
Параметр Endianness формата : Big
Идентификатор кодека : A_DTS
Продолжительность : 1 ч. 43 м.
Вид битрейта : Постоянный
Битрейт : 1509 Кбит/сек
Каналы : 2 канала
Расположение каналов : Front: L R
Частота : 48,0 КГц
Частота кадров : 93,750 кадра/сек (512 spf)
Битовая глубина : 16 бит
Метод сжатия : С потерями
Размер потока : 1,09 Гбайт (9%)
Заголовок : AVO (Вартан Дохалов)
Язык : Russian
Default : Нет
Forced : Нет

Общее
Полное имя : D:\Video\Чернокнижник.1989.BDRip.1080p\Чернокнижник.1989.eng.srt
Формат : SubRip
Размер файла : 70,9 Кбайт

Текст
Формат : SubRip
Метод сжатия : Без потерь

Общее
Полное имя : D:\Video\Чернокнижник.1989.BDRip.1080p\Чернокнижник.1989.Original.eng.dts
Формат : DTS
Формат/Информация : Digital Theater Systems
Размер файла : 1,09 Гбайт
Продолжительность : 1 ч. 43 м.
Режим общего битрейта : Постоянный
Общий поток : 1509 Кбит/сек

Аудио
Формат : DTS
Формат/Информация : Digital Theater Systems
Режим : 16
Параметр Endianness формата : Big
Продолжительность : 1 ч. 43 м.
Вид битрейта : Постоянный
Битрейт : 1509 Кбит/сек
Каналы : 2 канала
Расположение каналов : Front: L R
Частота : 48,0 КГц
Частота кадров : 93,750 кадра/сек (512 spf)
Битовая глубина : 16 бит
Метод сжатия : С потерями
Размер потока : 1,09 Гбайт

Общее
Полное имя : D:\Video\Чернокнижник.1989.BDRip.1080p\Чернокнижник.1989.rus.srt
Формат : SubRip
Размер файла : 77,9 Кбайт

Текст
Формат : SubRip
Метод сжатия : Без потерь

Общее
Полное имя : D:\Video\Чернокнижник.1989.BDRip.1080p\Чернокнижник.1989.VO.rus.любительский одноголосый, Петербуржец.ac3
Формат : AC-3
Формат/Информация : Audio Coding 3
Размер файла : 142 Мбайт
Продолжительность : 1 ч. 43 м.
Режим общего битрейта : Постоянный
Общий поток : 192 Кбит/сек

Аудио
Формат : AC-3
Формат/Информация : Audio Coding 3
Расширение режима : CM (complete main)
Параметр Endianness формата : Big
Продолжительность : 1 ч. 43 м.
Вид битрейта : Постоянный
Битрейт : 192 Кбит/сек
Каналы : 2 канала
Расположение каналов : Front: L R
Частота : 48,0 КГц
Частота кадров : 31,250 кадров/сек (1536 spf)
Метод сжатия : С потерями
Размер потока : 142 Мбайт (100%)

Общее
Полное имя : D:\Video\Чернокнижник.1989.BDRip.1080p\Чернокнижник.1989.VO.rus.профессиональный одноголосый, Н.Жучков.dts
Формат : DTS
Формат/Информация : Digital Theater Systems
Размер файла : 1,12 Гбайт
Продолжительность : 1 ч. 46 м.
Режим общего битрейта : Постоянный
Общий поток : 1509 Кбит/сек

Аудио
Формат : DTS
Формат/Информация : Digital Theater Systems
Режим : 16
Параметр Endianness формата : Big
Продолжительность : 1 ч. 46 м.
Вид битрейта : Постоянный
Битрейт : 1509 Кбит/сек
Каналы : 2 канала
Расположение каналов : Front: L R
Частота : 48,0 КГц
Частота кадров : 93,750 кадра/сек (512 spf)
Битовая глубина : 16 бит
Метод сжатия : С потерями
Размер потока : 1,12 Гбайт
pb.wtf



Скачать Чернокнижник через торрент http://s018.radikal.ru/i522/1605/40/285c9d1d248b.jpg Скачать фильм Чернокнижник через торрент бесплантно в хорошем качестве Описание: Бостон. 1691 год. До казни самого могущественного колдуна-чернокнижника Нового Света остается лишь несколько часов. Но сам дьявол ... 8.5 10 6
Info! Золотая раздача, скачанное не засчитывается.
Торрент: Зарегистрирован [2016-05-13 13:47] · скачан: 19 раз
Статус: √ проверено
Размер: 15.03 GB
Как cкачать? Как скачать Чернокнижник через торрент | qTorrent

% Раздел Тема Автор DL S | L
Фильмы (HD 720p, 1080p) (48-60 fps) [ 7.21 GB ] Чернокнижник 2: Армагеддон / Warlock: The Armageddon [1993 BDRip 720p by mimok Dub 2 x MVO 3 x AVO] 60fps mimok Скачать
1 | 0
Фильмы [HD 720p, 1080p] (Хороший звук DUB, MVO) [ 11.86 GB ] Чернокнижник 2: Армагеддон / Warlock: The Armageddon [1993 BDRip 1080p by msltel] DUB 2 x MVO 3 x AVO msltel Скачать
1 | 0
Фильмы [HD 720p, 1080p] (Хороший звук DUB, MVO) [ 5.19 GB ] Чернокнижник 2: Армагеддон / Warlock: The Armageddon [1993 BDRip 720p by msltel] DUB 2 x MVO 3 x AVO msltel Скачать
1 | 0
Фильмы [HD 720p, 1080p] (Хороший звук DUB, MVO) [ 5.34 GB ] Чернокнижник / Warlock [1989 BDRip 720p by msltel] DUB MVO 3 x AVO 2 x VO msltel Скачать
1 | 0

28-11-2019 20:33  

Отключить всю рекламу на сайте

    Дорогой пользователь! Огромная просьба, поблагодарите релизера, оцените раздачу и оставьте свои комментарий, если Вы скачали Чернокнижник через торрент бесплатно! Внесите свою лепту в развитие PiratBit!
    Комментировать посты могут только пользователи прошедшие не сложную регистрацию
    Показать сообщения:    

    Чернокнижник через торрент
    Скачать бесплатно Чернокнижник
    Чернокнижник скачать торрент
    Чернокнижник смотреть онлайн
    Cкачать фильм Чернокнижник бесплатно
    Чернокнижник скачать торрент в хорошем качестве
    Чернокнижник смотреть онлайн бесплатно в хорошем качестве


    Вы не можете начинать темы
    Вы не можете отвечать на сообщения
    Вы не можете редактировать свои сообщения
    Вы не можете удалять свои сообщения
    Вы не можете голосовать в опросах
    Вы не можете прикреплять файлы к сообщениям
    Вы можете скачивать файлы