новый адрес
Ссылка на приватное зеркало всего за 1$. Внимание количество ограничено!!!

iTunes

1+1

iTunes

мы

WEB-DL

1

iTunes

Чернобыль

iTunes

Ральф против интернета

Лицензия

ПШазам

Лицензия

Оно 2

Лицензия

30
pack

Вам бонус

ВАЖНО

!!Акция!!

Alien_RageХит недели

RePack

Resident Evil 21

ИГРА 18+

pack

RePack

jed

!!Акция!!

Alien_Rage

RePack

fifa19

RePack

Assassins Creed: Odyssey

RePack

NEED FOR SPEED™ PAYBACK

3 сезон

9 сезон

Бесстыжие 9 сезон

Все сериалы

все сериалы на PB.wtf

RePack

FAR CRY 5
Ребята, катастрофически не хватает 1900р. для оплаты серверов за Октябрь (всвязи с блокировками трафик упал в 3 раза), 1-2р., выручайте.
  

Чернокнижник 2: Армагеддон / Warlock: The Armageddon (Энтони Хикокс) [1993, ужасы, фэнтези, BDRip 720p by msltel] DUB, 2 x MVO, 3 x AVO pb.wtf

Чернокнижник 2: Армагеддон через торрент pb.wtf

Размер: 5.19 GB | Добавлен: 3 года 6 мес. назад | Торрент скачан:80 раз
Скачать  

13-05-2016 14:46 Чернокнижник 2: Армагеддон Скачать торрент  

Название: Чернокнижник 2: Армагеддон
Оригинальное название: Warlock: The Armageddon
Год выпуска: 1993
Страна: США
Жанр: ужасы, фэнтези
Продолжительность: 01:38:08
Перевод: дублированный, профессиональный многоголосый, авторский

Режиссёр: Энтони Хикокс

В ролях: Джулиан Сэндс, Крис Янг (I), Пола Маршалл, Джоанна Пакула, Стив Кэхэн, Р.Г. Армстронг, Чарльз Хэллахан, Брюс Гловер, Крэйг Хёрли, Дэвис Гейнс, Ребекка Стрит, Доун Энн Биллингс, Зак Гэллиган, Рен Т. Браун, Гэри Сервантес, Михали 'Мишу' Месзарос, Ричард Зобель, Мишель Моффетт, Джинн Мори, Лоуренс Морторфф, Ферди Мэйн, Энтони Хикокс, Брент Болтхаус, Джастин Кэроу, Джозеф Бернард, Джордж «Бак» Флауэр, Шерил Мэри Льюис

Описание: Чернокнижник, единственный сын Сатаны, вернулся, чтобы найти шесть магических камней, которые были потеряны на протяжении веков. Вместе эти камни создают страшную силу, которая отдаёт мир во Влacть Сатаны. В распоряжении Чернокнижника только 7 дней (между солнечным и лунным затмениями), и он неумолим в своих поисках. Сила его магии растёт с получением каждого камня. Но двое влюблённых встают на его пути. Последним из рода священников-друидов Кенни и Саманте открывается их предназначение. Они единственные, кто обладает зелёной магией друидов, которая может остановить Чернокнижника и спасти мир...



Качество: BDRip 720p Сравнение с исходником
Формат: MKV
Видео: MPEG-4 AVC, 6200 Кбит/с, 1280x720, 23,976 кадра/с
Аудио 1: русский, AC3, 192 kbps, 2 ch, 48 kHz [дублированный, Хлопушка]
Аудио 2: русский, AC3, 224 kbps, 2 ch, 48 kHz [профессиональный многоголосый, R5/TB3]
Аудио 3: русский, AC3, 192 kbps, 2 ch, 48 kHz [авторский, Леонид Володарский]

Внешние файлы
Аудио: русский, AC3, 192 kbps, 2 ch, 48 kHz [профессиональный многоголосый, Нева-1]
Аудио: русский, AC3, 192 kbps, 2 ch, 48 kHz [авторский, Василий Горчаков]
Аудио: русский, AC3, 192 kbps, 2 ch, 48 kHz [авторский, Вартан Дохалов]
Аудио: английский, AC3, 192 kbps, 2 ch, 48 kHz [оригинал]
Субтитры: русские
Субтитры: английские
Общее
Полное имя : D:\Video\Чернокнижник 2.1993.BDRip.720p\Чернокнижник 2.1993.AVO.rus.В.Горчаков.ac3
Формат : AC-3
Формат/Информация : Audio Coding 3
Размер файла : 135 Мбайт
Продолжительность : 1 ч. 38 м.
Режим общего битрейта : Постоянный
Общий поток : 192 Кбит/сек

Аудио
Формат : AC-3
Формат/Информация : Audio Coding 3
Расширение режима : CM (complete main)
Параметр Endianness формата : Big
Продолжительность : 1 ч. 38 м.
Вид битрейта : Постоянный
Битрейт : 192 Кбит/сек
Каналы : 2 канала
Расположение каналов : Front: L R
Частота : 48,0 КГц
Частота кадров : 31,250 кадров/сек (1536 spf)
Метод сжатия : С потерями
Размер потока : 135 Мбайт (100%)

Общее
Полное имя : D:\Video\Чернокнижник 2.1993.BDRip.720p\Чернокнижник 2.1993.AVO.rus.В.Дохалов.ac3
Формат : AC-3
Формат/Информация : Audio Coding 3
Размер файла : 135 Мбайт
Продолжительность : 1 ч. 38 м.
Режим общего битрейта : Постоянный
Общий поток : 192 Кбит/сек

Аудио
Формат : AC-3
Формат/Информация : Audio Coding 3
Расширение режима : CM (complete main)
Параметр Endianness формата : Big
Продолжительность : 1 ч. 38 м.
Вид битрейта : Постоянный
Битрейт : 192 Кбит/сек
Каналы : 2 канала
Расположение каналов : Front: L R
Частота : 48,0 КГц
Частота кадров : 31,250 кадров/сек (1536 spf)
Метод сжатия : С потерями
Размер потока : 135 Мбайт (100%)

Общее
Уникальный идентификатор : 204541425840940254865202495474498589250 (0x99E13EE5815AA4D18DAF8715D1C0D242)
Полное имя : D:\Video\Чернокнижник 2.1993.BDRip.720p\Чернокнижник 2.1993.BDRip.720p.mkv
Формат : Matroska
Версия формата : Version 4 / Version 2
Размер файла : 4,67 Гбайт
Продолжительность : 1 ч. 38 м.
Общий поток : 6810 Кбит/сек
Дата кодирования : UTC 2016-05-13 03:12:46
Программа кодирования : mkvmerge v8.2.0 ('World of Adventure') 64bit
Библиотека кодирования : libebml v1.3.1 + libmatroska v1.4.2

Видео
Идентификатор : 1
Формат : AVC
Формат/Информация : Advanced Video Codec
Профиль формата : High@L4.1
Параметр CABAC формата : Да
Параметр ReFrames формата : 9 кадров
Идентификатор кодека : V_MPEG4/ISO/AVC
Продолжительность : 1 ч. 38 м.
Битрейт : 6200 Кбит/сек
Ширина : 1280 пикселей
Высота : 720 пикселей
Соотношение сторон : 16:9
Режим частоты кадров : Постоянный
Частота кадров : 23,976 (24000/1001) кадра/сек
Цветовое пространство : YUV
Субдискретизация насыщенности : 4:2:0
Битовая глубина : 8 бит
Тип развёртки : Прогрессивная
Бит/(Пиксели*Кадры) : 0.281
Размер потока : 4,25 Гбайт (91%)
Библиотека кодирования : x264 core 146 r2538 121396c
Настройки программы : cabac=1 / ref=9 / deblock=1:-3:-3 / analyse=0x3:0x113 / me=umh / subme=10 / psy=1 / psy_rd=1.00:0.15 / mixed_ref=1 / me_range=32 / chroma_me=1 / trellis=2 / 8x8dct=1 / cqm=0 / deadzone=21,11 / fast_pskip=1 / chroma_qp_offset=-3 / threads=6 / lookahead_threads=1 / sliced_threads=0 / nr=0 / decimate=1 / interlaced=0 / bluray_compat=0 / constrained_intra=0 / bframes=10 / b_pyramid=2 / b_adapt=2 / b_bias=0 / direct=1 / weightb=1 / open_gop=0 / weightp=2 / keyint=230 / keyint_min=23 / scenecut=40 / intra_refresh=0 / rc_lookahead=40 / rc=crf / mbtree=0 / crf=18.0 / qcomp=0.60 / qpmin=0 / qpmax=69 / qpstep=4 / vbv_maxrate=40000 / vbv_bufsize=50000 / crf_max=0.0 / nal_hrd=none / filler=0 / ip_ratio=1.40 / pb_ratio=1.30 / aq=1:1.00
Язык : English
Default : Да
Forced : Нет

Аудио #1
Идентификатор : 2
Формат : AC-3
Формат/Информация : Audio Coding 3
Расширение режима : CM (complete main)
Параметр Endianness формата : Big
Идентификатор кодека : A_AC3
Продолжительность : 1 ч. 38 м.
Вид битрейта : Постоянный
Битрейт : 192 Кбит/сек
Каналы : 2 канала
Расположение каналов : Front: L R
Частота : 48,0 КГц
Частота кадров : 31,250 кадров/сек (1536 spf)
Метод сжатия : С потерями
Размер потока : 135 Мбайт (3%)
Заголовок : DUB (Хлопущка)
Язык : Russian
Default : Да
Forced : Нет

Аудио #2
Идентификатор : 3
Формат : AC-3
Формат/Информация : Audio Coding 3
Расширение режима : CM (complete main)
Параметр Endianness формата : Big
Идентификатор кодека : A_AC3
Продолжительность : 1 ч. 38 м.
Вид битрейта : Постоянный
Битрейт : 224 Кбит/сек
Каналы : 2 канала
Расположение каналов : Front: L R
Частота : 48,0 КГц
Частота кадров : 31,250 кадров/сек (1536 spf)
Метод сжатия : С потерями
Размер потока : 157 Мбайт (3%)
Заголовок : MVO (R5/TB3)
Язык : Russian
Default : Нет
Forced : Нет

Аудио #3
Идентификатор : 4
Формат : AC-3
Формат/Информация : Audio Coding 3
Расширение режима : CM (complete main)
Параметр Endianness формата : Big
Идентификатор кодека : A_AC3
Продолжительность : 1 ч. 38 м.
Вид битрейта : Постоянный
Битрейт : 192 Кбит/сек
Каналы : 2 канала
Расположение каналов : Front: L R
Частота : 48,0 КГц
Частота кадров : 31,250 кадров/сек (1536 spf)
Метод сжатия : С потерями
Размер потока : 135 Мбайт (3%)
Заголовок : AVO (Леонид Володарский)
Язык : Russian
Default : Нет
Forced : Нет

Общее
Полное имя : D:\Video\Чернокнижник 2.1993.BDRip.720p\Чернокнижник 2.1993.eng.srt
Формат : SubRip
Размер файла : 56,9 Кбайт

Текст
Формат : SubRip
Метод сжатия : Без потерь

Общее
Полное имя : D:\Video\Чернокнижник 2.1993.BDRip.720p\Чернокнижник 2.1993.MVO.rus.Нева-1.ac3
Формат : AC-3
Формат/Информация : Audio Coding 3
Размер файла : 135 Мбайт
Продолжительность : 1 ч. 38 м.
Режим общего битрейта : Постоянный
Общий поток : 192 Кбит/сек

Аудио
Формат : AC-3
Формат/Информация : Audio Coding 3
Расширение режима : CM (complete main)
Параметр Endianness формата : Big
Продолжительность : 1 ч. 38 м.
Вид битрейта : Постоянный
Битрейт : 192 Кбит/сек
Каналы : 2 канала
Расположение каналов : Front: L R
Частота : 48,0 КГц
Частота кадров : 31,250 кадров/сек (1536 spf)
Метод сжатия : С потерями
Размер потока : 135 Мбайт (100%)

Общее
Полное имя : D:\Video\Чернокнижник 2.1993.BDRip.720p\Чернокнижник 2.1993.Original.eng.ac3
Формат : AC-3
Формат/Информация : Audio Coding 3
Размер файла : 135 Мбайт
Продолжительность : 1 ч. 38 м.
Режим общего битрейта : Постоянный
Общий поток : 192 Кбит/сек

Аудио
Формат : AC-3
Формат/Информация : Audio Coding 3
Расширение режима : CM (complete main)
Параметр Endianness формата : Big
Продолжительность : 1 ч. 38 м.
Вид битрейта : Постоянный
Битрейт : 192 Кбит/сек
Каналы : 2 канала
Расположение каналов : Front: L R
Частота : 48,0 КГц
Частота кадров : 31,250 кадров/сек (1536 spf)
Метод сжатия : С потерями
Размер потока : 135 Мбайт (100%)

Общее
Полное имя : D:\Video\Чернокнижник 2.1993.BDRip.720p\Чернокнижник 2.1993.rus.srt
Формат : SubRip
Размер файла : 74,1 Кбайт

Текст
Формат : SubRip
Метод сжатия : Без потерь
pb.wtf



Скачать Чернокнижник 2: Армагеддон через торрент http://s018.radikal.ru/i523/1605/14/1efb464b365d.jpg Скачать фильм Чернокнижник 2: Армагеддон через торрент бесплантно в хорошем качестве Описание: Чернокнижник, единственный сын Сатаны, вернулся, чтобы найти шесть магических камней, которые были потеряны на протяжении веков. ... 9.7 10 7
Info! Золотая раздача, скачанное не засчитывается.
Торрент: Зарегистрирован [2016-05-13 14:46] · скачан: 80 раз
Статус: √ проверено
Размер: 5.19 GB
Как cкачать? Как скачать Чернокнижник 2: Армагеддон через торрент | qTorrent

% Раздел Тема Автор DL S | L
Фильмы (HD 720p, 1080p) (48-60 fps) [ 7.21 GB ] Чернокнижник 2: Армагеддон / Warlock: The Armageddon [1993 BDRip 720p by mimok Dub 2 x MVO 3 x AVO] 60fps mimok Скачать
1 | 0
Фильмы [HD 720p, 1080p] (Хороший звук DUB, MVO) [ 11.86 GB ] Чернокнижник 2: Армагеддон / Warlock: The Armageddon [1993 BDRip 1080p by msltel] DUB 2 x MVO 3 x AVO msltel Скачать
1 | 0

28-11-2019 20:33  

Отключить всю рекламу на сайте

14-05-2016 13:31 Чернокнижник 2: Армагеддон Скачать торрент  

о спасибо за 2 часть фильмаpb.wtf



    Дорогой пользователь! Огромная просьба, поблагодарите релизера, оцените раздачу и оставьте свои комментарий, если Вы скачали Чернокнижник 2: Армагеддон через торрент бесплатно! Внесите свою лепту в развитие PiratBit!
    Комментировать посты могут только пользователи прошедшие не сложную регистрацию
    Показать сообщения:    

    Чернокнижник 2: Армагеддон через торрент
    Скачать бесплатно Чернокнижник 2: Армагеддон
    Чернокнижник 2: Армагеддон скачать торрент
    Чернокнижник 2: Армагеддон смотреть онлайн
    Cкачать фильм Чернокнижник 2: Армагеддон бесплатно
    Чернокнижник 2: Армагеддон скачать торрент в хорошем качестве
    Чернокнижник 2: Армагеддон смотреть онлайн бесплатно в хорошем качестве


    Вы не можете начинать темы
    Вы не можете отвечать на сообщения
    Вы не можете редактировать свои сообщения
    Вы не можете удалять свои сообщения
    Вы не можете голосовать в опросах
    Вы не можете прикреплять файлы к сообщениям
    Вы можете скачивать файлы