Ссылка на приватное зеркало всего за 1$. Внимание количество ограничено!!!

iTunes

iTunes

iTunes

1

iTunes

iTunes

iTunes

iTunes

iTunes

30
pack

$ от Little Big

ВАЖНО

!!Акция!!

Alien_RageХит недели

RePack

Resident Evil 21

ИГРА 18+

pack

RePack

jed

!!Акция!!

Alien_Rage

RePack

fifa19

RePack

Assassins Creed: Odyssey

RePack

NEED FOR SPEED™ PAYBACK

4 сезон

9 сезон

Бесстыжие 9 сезон

Все сериалы

все сериалы на PB.wtf

RePack

FAR CRY 5
  

Падение Лондона / London Has Fallen (Бабак Наджафи ) [2016, боевик, триллер, драма, WEB-DL 1080p, Дубляж] iTunes pb.wtf

Падение Лондона через торрент pb.wtf

Размер: 3.41 GB | Добавлен: 4 года 2 мес. назад | Торрент скачан:2275 раз
Скачать  

13-05-2016 15:20 Падение Лондона Скачать торрент  

Падение Лондона / London Has Fallen

Год выпуска: 2016
Страна: США, Великобритания, Болгария
Жанр: боевик, триллер, драма, криминал
Продолжительность: 01:38:24
Перевод: Дубляж - [Лицензия / iTunes]
Субтитры: английские,
Режиссер: Бабак Наджафи
В ролях: Джерард Батлер (Mike Banning), Аарон Экхарт (Benjamin Asher), Морган Фриман (VP Trumbull), Алон Абутбул (Aamir Barkawi), Валид Зуэйтер (Kamran Barkawi), Адель Беншериф (Raza Mansoor), Мехди Дехби (Sultan Mansoor), Шивани Гаи (Amal Mansoor), Мартин Петрушев (UAV Reaper Pilot), Оуэн Дэвис (JOSC Officer), Майкл Уилдман (Agent Voight), Рада Митчелл (Leah Banning)
Описание:
Действие фильма начинается в Лондоне, где премьер-министр Великобритании погибает при загадочных обстоятельствах. На похоронах безусловно присутствуют руководители западного мира. Но то, что начиналось как наиболее безопасное событие на земле, превращается в опаснейшее покушение на самых мощных мировых лидеров, что в свою очередь ставит под угрозу будущее всего мира. Только три человека сохраняют надежду на предотвращение катастрофы: президент США, его верный помощник - агент спецслужбы и английский агент МИ-6, который никому не доверяет.
Рейтинг:

Качество: WEB-DL 1080p
Формат: MKV
Видео: AVC, 1920x804 (2.40:1), 4290 kbps, 24 fps, 0,116 bpp
Аудио №1: русский / AC3 / 5.1 / 48 kHz / 384 kbps / 16 bit
Аудио №2: английский / AC3 / 2.0 / 48 kHz / 192 kbps / 16 bit

Format : Matroska
Format version : Version 2
File size : 3.41 GiB
Duration : 1h 38mn
Overall bit rate : 4 966 Kbps
Encoded date : UTC 2016-05-13 14:33:08
Writing application : mkvmerge v4.0.0 ('The Stars were mine') сборка от Jun 6 2010 16:18:42
Writing library : libebml v1.0.0 + libmatroska v1.0.0

Video
ID : 1
Format : AVC
Format/Info : Advanced Video Codec
Format profile : High@L4
Format settings, CABAC : Yes
Format settings, ReFrames : 5 frames
Format settings, GOP : N=1
Codec ID : V_MPEG4/ISO/AVC
Duration : 1h 38mn
Bit rate : 4 291 Kbps
Width : 1 920 pixels
Height : 804 pixels
Display aspect ratio : 2.40:1
Frame rate mode : Constant
Frame rate : 24.000 fps
Color space : YUV
Chroma subsampling : 4:2:0
Bit depth : 8 bits
Scan type : Progressive
Bits/(Pixel*Frame) : 0.116
Stream size : 2.95 GiB (86%)
Language : English
Default : No
Forced : No
Color range : Limited
Color primaries : BT.709
Transfer characteristics : BT.709
Matrix coefficients : BT.709

Audio #1
ID : 2
Format : AC-3
Format/Info : Audio Coding 3
Mode extension : CM (complete main)
Format settings, Endianness : Big
Codec ID : A_AC3
Duration : 1h 38mn
Bit rate mode : Constant
Bit rate : 384 Kbps
Channel(s) : 6 channels
Channel positions : Front: L C R, Side: L R, LFE
Sampling rate : 48.0 KHz
Frame rate : 31.250 fps (1536 spf)
Compression mode : Lossy
Stream size : 270 MiB (8%)
Title : DUB
Language : Russian
Default : Yes
Forced : Yes

Audio #2
ID : 3
Format : AC-3
Format/Info : Audio Coding 3
Mode extension : CM (complete main)
Format settings, Endianness : Big
Codec ID : A_AC3
Duration : 1h 38mn
Bit rate mode : Constant
Bit rate : 192 Kbps
Channel(s) : 2 channels
Channel positions : Front: L R
Sampling rate : 48.0 KHz
Frame rate : 31.250 fps (1536 spf)
Compression mode : Lossy
Stream size : 135 MiB (4%)
Language : English
Default : No
Forced : No

Text
ID : 4
Format : UTF-8
Codec ID : S_TEXT/UTF8
Codec ID/Info : UTF-8 Plain Text
Language : English
Default : No
Forced : No

[/code]
pb.wtf



Скачать Падение Лондона через торрент http://i77.fastpic.ru/big/2016/0513/4e/51945964bace82e64f5d98286db7094e.jpg Скачать фильм Падение Лондона через торрент бесплантно в хорошем качестве Описание: Действие фильма начинается в Лондоне, где премьер-министр Великобритании погибает при загадочных обстоятельствах. На похоронах ... 9.1 10 49
Info! Золотая раздача, скачанное не засчитывается.
Торрент: Зарегистрирован [2016-05-13 15:20] · скачан: 2 275 раз
Статус: √ проверено
Размер: 3.41 GB
Как cкачать? Как скачать Падение Лондона через торрент | qTorrent

% Раздел Тема Автор DL S | L
R.G. Resident & PiratVoice - Фильмы, Видео [ 2.07 GB ] Падение Лондона / London Has Fallen [2016 BDRip-AVC ] schultz Скачать
1 | 0
Фильмы 2016 [DVDrip, WEB-DLRip, HDrip] (DUB, MVO) [ 1.46 GB ] Падение Лондона / London Has Fallen [2016 WEB-DLRip ] Twi7ter Скачать
2 | 0
Фильмы 2016 [DVDrip, WEB-DLRip, HDrip] (DUB, MVO) [ 743 MB ] Падение Лондона / London Has Fallen [2016 WEB-DLRip ""] coc900 Скачать
1 | 0
Фильмы 2016 [DVDrip, WEB-DLRip, HDrip] (DUB, MVO) [ 1.37 GB ] Падение Лондона / London Has Fallen [2016 WEB-DLRip] Ворон Скачать
1 | 0
Фильмы (WEB-DL 720p, 1080p) [ 3.17 GB ] Падение Лондона / London Has Fallen [2016 WEB-DL 720p] $-DRON-$ Скачать
1 | 0

28-11-2019 20:33  

Отключить всю рекламу на сайте

14-05-2016 05:48 Падение Лондона Скачать торрент  

Круто!!pb.wtf



15-05-2016 04:31 Падение Лондона Скачать торрент  

Шляпаpb.wtf



17-05-2016 08:26 Падение Лондона Скачать торрент  

Не плохое продолжение мне понравилось... pb.wtf



19-05-2016 10:30 Падение Лондона Скачать торрент  

Спасибо, нужно будет посмотреть)pb.wtf



22-05-2016 19:26 Падение Лондона Скачать торрент  

Не плохой фильмец !!!!!pb.wtf



20-01-2018 17:26 Падение Лондона Скачать торрент  

А...извините,при чем здесь Лондон?Бомбили америкосыpb.wtf



    Дорогой пользователь! Огромная просьба, поблагодарите релизера, оцените раздачу и оставьте свои комментарий, если Вы скачали Падение Лондона через торрент бесплатно! Внесите свою лепту в развитие PiratBit!
    Комментировать посты могут только пользователи прошедшие не сложную регистрацию
    Показать сообщения:    

    Падение Лондона через торрент
    Скачать бесплатно Падение Лондона
    Падение Лондона скачать торрент
    Падение Лондона смотреть онлайн
    Cкачать фильм Падение Лондона бесплатно
    Падение Лондона скачать торрент в хорошем качестве
    Падение Лондона смотреть онлайн бесплатно в хорошем качестве


    Вы не можете начинать темы
    Вы не можете отвечать на сообщения
    Вы не можете редактировать свои сообщения
    Вы не можете удалять свои сообщения
    Вы не можете голосовать в опросах
    Вы не можете прикреплять файлы к сообщениям
    Вы можете скачивать файлы