1 сезон

1 сезон

iTunes

1

КиноПоиск HD

Кинопоиск HD

iTunes

13

1 сезон

RePack

30

Ultimate

ВАЖНО

ИГРА 18+

pack

RePack

MK11
pack

Легкие деньги

RePack

jed

RePack

fifa19

RePack

RDR2

RePack

NEED FOR SPEED™ PAYBACK

4 сезон

9 сезон

Бесстыжие 9 сезон

Все сериалы

все сериалы на PB.wtf

RePack

FAR CRY 5
  
Magnet ссылка

Тень якудза / Into the Sun (Минк) [2005, боевик, триллер, приключения, HDRip] Sub Eng, 2 x MVO, 2 x DVO, AVO + original pb.wtf

Тень якудза через торрент pb.wtf

Размер: 2.56 GB | Добавлен: 4 года 11 мес. назад | Торрент скачан:23 раза
Скачать  

13-05-2016 15:33 Тень якудза Скачать торрент  

Тень якудза / Into the Sun

Год выпуска: 2005
Страна: США
Жанр: боевик, триллер, приключения

Продолжительность: 01:36:45
Перевод: Профессиональный (многоголосый закадровый) DVD-Магия
Перевод 2: Профессиональный (двухголосый закадровый) Кино-Магия
Перевод 3: Профессиональный (многоголосый закадровый) Видео-сервис
Перевод 4: Профессиональный (двухголосый закадровый) Рен-тв
Перевод 5: Авторский (одноголосый) Визгунов
Режиссер: Минк
В ролях: Стивен Сигал (Travis Hunter), Мэттью Дэвис (FBI Agent Sean Mack), Такао Осава (Kuroda), Эдди Джордж (Jones), Уильям Этертон (CIA Agent Block), Джульетт Маркиз (Jewel), Кен Ло (Chen), Косукэ Тоёхара (Fudomyo-o), Акира Тэрао (Matsuda), Ив Масато (Kojima), Пэйс У (Mai Ling), Тиаки Курияма (Ayako)
Описание:
Когда происходит жестокое убийство губернатора Токио, а сестра его жены оказывается похищенной, мысли людей поневоле обращаются к единственной силе, способной на такое дерзкое преступление - якудза, легендарной японской мафии.
Живущие по суровым законам самураев, эти бандиты не боятся никого и ничего, а всякого перешедшего им дорогу ожидает скорая и мучительная смерть. Бросить вызов якудза самоубийственно, но находится человек, готовый рискнуть - агент ЦРУ Трэвис Хантер. И он намерен докопаться до истины, чего бы это ему ни стоило. Однако даже он не мог предположить, к какой шокирующей истине приведет его опасная миссия...
Рейтинг:

MPAA: R - Лицам до 17 лет обязательно присутствие взрослого
Качество: HDRip
Формат: AVI
Видео: XviD, 704x400 (16:9), 1911 kbps, 23,976 fps, 0,283 bpp
Аудио 1: 48 kHz, AC3 Dolby Digital, 3/2 (L,C,R,l,r) + LFE ch, ~384 kbps | DVD-Магия
Аудио 2: 48 kHz, AC3 Dolby Digital, 3/2 (L,C,R,l,r) + LFE ch, ~448 kbps | Кино-Магия
Аудио 3: 48 kHz, AC3 Dolby Digital, 3/2 (L,C,R,l,r) + LFE ch, ~448 kbps | ENG
Отдельно:
Аудио 4: 48 kHz, AC3 Dolby Digital, 2/0 (L,R), ~192.00 kbps avg | Видео-сервис
Аудио 5: 48 kHz, AC3 Dolby Digital, 2/0 (L,R), ~192.00 kbps avg | Рен-тв
Аудио 6: 48 kHz, AC3 Dolby Digital, 2/0 (L,R), ~192.00 kbps avg | Визгунов
Субтитры: английские (subtitle eng)
Релиз группы:
Рип: Sem-te

Код:

General
Complete name                            : C:\Users\tut\Desktop\Into the Sun 2005.HDRip\Into.the.Sun.2005.HDRip.2.17.Gb.XviD.АС3.Sem-te.avi
Format                                   : AVI
Format/Info                              : Audio Video Interleave
Format profile                           : OpenDML
File size                                : 2.17 GiB
Duration                                 : 1h 36mn
Overall bit rate                         : 3 215 Kbps
Writing application                      : VirtualDubMod 1.5.10.3 | www.virtualdub-fr.org || (build 2550/release)
Writing library                          : VirtualDubMod build 2550/release

Video
ID                                       : 0
Format                                   : MPEG-4 Visual
Format profile                           : Advanced Simple@L5
Format settings, BVOP                    : 1
Format settings, QPel                    : No
Format settings, GMC                     : No warppoints
Format settings, Matrix                  : Custom
Codec ID                                 : XVID
Codec ID/Hint                            : XviD
Duration                                 : 1h 36mn
Bit rate                                 : 1 911 Kbps
Width                                    : 704 pixels
Height                                   : 400 pixels
Display aspect ratio                     : 16:9
Frame rate                               : 23.976 fps
Color space                              : YUV
Chroma subsampling                       : 4:2:0
Bit depth                                : 8 bits
Scan type                                : Progressive
Compression mode                         : Lossy
Bits/(Pixel*Frame)                       : 0.283
Stream size                              : 1.29 GiB (59%)
Writing library                          : XviD 73

Audio #1
ID                                       : 1
Format                                   : AC-3
Format/Info                              : Audio Coding 3
Mode extension                           : CM (complete main)
Codec ID                                 : 2000
Duration                                 : 1h 36mn
Bit rate mode                            : Constant
Bit rate                                 : 384 Kbps
Channel(s)                               : 6 channels
Channel positions                        : Front: L C R, Side: L R, LFE
Sampling rate                            : 48.0 KHz
Bit depth                                : 16 bits
Compression mode                         : Lossy
Stream size                              : 266 MiB (12%)
Alignment                                : Split accross interleaves
Interleave, duration                     : 42 ms (1.00 video frame)
Interleave, preload duration             : 500 ms

Audio #2
ID                                       : 2
Format                                   : AC-3
Format/Info                              : Audio Coding 3
Mode extension                           : CM (complete main)
Codec ID                                 : 2000
Duration                                 : 1h 36mn
Bit rate mode                            : Constant
Bit rate                                 : 448 Kbps
Channel(s)                               : 6 channels
Channel positions                        : Front: L C R, Side: L R, LFE
Sampling rate                            : 48.0 KHz
Bit depth                                : 16 bits
Compression mode                         : Lossy
Stream size                              : 310 MiB (14%)
Alignment                                : Split accross interleaves
Interleave, duration                     : 42 ms (1.00 video frame)
Interleave, preload duration             : 500 ms

Audio #3
ID                                       : 3
Format                                   : AC-3
Format/Info                              : Audio Coding 3
Mode extension                           : CM (complete main)
Codec ID                                 : 2000
Duration                                 : 1h 36mn
Bit rate mode                            : Constant
Bit rate                                 : 448 Kbps
Channel(s)                               : 6 channels
Channel positions                        : Front: L C R, Side: L R, LFE
Sampling rate                            : 48.0 KHz
Bit depth                                : 16 bits
Compression mode                         : Lossy
Stream size                              : 310 MiB (14%)
Alignment                                : Split accross interleaves
Interleave, duration                     : 42 ms (1.00 video frame)
Interleave, preload duration             : 500 ms


pb.wtf



Скачать Тень якудза через торрент http://i6.imageban.ru/out/2016/05/13/c3379e4145bbfeb3c46e01117341d0b5.png Скачать фильм Тень якудза через торрент бесплантно в хорошем качестве Описание: Когда происходит жестокое убийство губернатора Токио, а сестра его жены оказывается похищенной, мысли людей поневоле обращаются к ... 10 10 4
Торрент: Зарегистрирован [2016-05-13 15:33] · скачан: 23 раз
Статус: √ проверено
Размер: 2.56 GB
Как cкачать? Как скачать Тень якудза через торрент | UTorrent

28-11-2019 20:33  

Отключить всю рекламу на сайте

    Дорогой пользователь! Огромная просьба, поблагодарите релизера, оцените раздачу и оставьте свои комментарий, если Вы скачали Тень якудза через торрент бесплатно! Внесите свою лепту в развитие PiratBit!
    Комментировать посты могут только пользователи прошедшие не сложную регистрацию
    Показать сообщения:    

    Тень якудза через торрент
    Скачать бесплатно Тень якудза
    Тень якудза скачать торрент
    Тень якудза смотреть онлайн
    Cкачать фильм Тень якудза бесплатно
    Тень якудза скачать торрент в хорошем качестве
    Тень якудза смотреть онлайн бесплатно в хорошем качестве


    Вы не можете начинать темы
    Вы не можете отвечать на сообщения
    Вы не можете редактировать свои сообщения
    Вы не можете удалять свои сообщения
    Вы не можете голосовать в опросах
    Вы не можете прикреплять файлы к сообщениям
    Вы можете скачивать файлы