Присоединяйтесь к нам в Telegram!, здесь всегда актуальный адрес сайта, оперативная поддержка и многое другое!!

>

5.9

iTunes

7.4

iTunes

9.4

1 сезон

1

7.4

2 сезон

7.2

iTunes

7.3

1 сезон

13

6.1

iTunes

8.3

GOG

30

ULTIMATE

pack

9.9

Лицензия

ВАЖНО

ИГРА 18+

pack

7.3

RePack

MK11

7.7

RePack

jed

7.8

RePack

fifa19

8.5

RePack

RDR2

RePack

NEED FOR SPEED™ PAYBACK

5 сезон

9 сезон

Бесстыжие 9 сезон

Все сериалы

все сериалы на PB.wtf

RePack

FAR CRY 5

Anonymous, доброй ночи, мы катастрофически не успеваем собрать деньги на оплату серверов, помогите нам пожалуйста 5,10,15р., для нас важна любая помощь . В качестве благодарности мы отключим Вам всю рекламу на сайте (укажите свой ник в строку Ваше имя)!

×
  
Magnet ссылка

Jennifer Lopez - Ain't Your Mama [2016 г., Pop, HDTVRip 1080p] pb.wtf

Jennifer Lopez - Ain't Your Mama через торрент pb.wtf

Размер: 268 MB | Добавлен: 5 лет 6 мес. назад | Торрент скачан:62 раза
Смотреть онлайн Jennifer Lopez - Ain't Your Mama | Скачать    Ребята, помогите собрать деньги на оплату серверов!!!

13-05-2016 16:09 Jennifer Lopez - Ain't Your Mama Скачать торрент  

Jennifer Lopez - Ain't Your Mama
Год выпуска: 2016
Жанр: Pop
Продолжительность: 00:05:08
Качество:HDTVRip 1080p
Формат: MPEG4
Видео кодек: AVC
Аудио кодек:AAC
Видео: MPEG4 AVC, 1920x1080, 23,976 fps, 6969 kbps
Аудио#1: AAC 48,0 kHz, 2 ch, 320 kbps
Общее
Полное имя : Jennifer Lopez - Ain't Your Mama.mp4
Формат : MPEG-4
Профиль формата : Base Media / Version 2
Идентификатор кодека : mp42
Размер файла : 268 Мбайт
Продолжительность : 5 м. 8 с.
Режим общего битрейта : Переменный
Общий поток : 7295 Кбит/сек

Видео
Идентификатор : 1
Формат : AVC
Формат/Информация : Advanced Video Codec
Профиль формата : High@L4.0
Параметр CABAC формата : Да
Параметр ReFrames формата : 8 кадров
Идентификатор кодека : avc1
Идентификатор кодека/Информация : Advanced Video Coding
Продолжительность : 5 м. 8 с.
Вид битрейта : Переменный
Битрейт : 6969 Кбит/сек
Максимальный битрейт : 40,0 Мбит/сек
Ширина : 1920 пикселей
Высота : 1080 пикселей
Соотношение сторон : 16:9
Режим частоты кадров : Переменный
Частота кадров : 23,976 кадра/сек
Минимальная частота кадров : 23,974 кадра/сек
Максимальная частота кадров : 23,981 кадра/сек
Цветовое пространство : YUV
Субдискретизация насыщенности : 4:2:0
Битовая глубина : 8 бит
Тип развёртки : Прогрессивная
Бит/(Пиксели*Кадры) : 0.140
Размер потока : 256 Мбайт (96%)
Язык : English

Аудио
Идентификатор : 2
Формат : AAC
Формат/Информация : Advanced Audio Codec
Профиль формата : LC
Идентификатор кодека : 40
Продолжительность : 5 м. 8 с.
Продолжительность оригинала : 5 м. 8 с.
Вид битрейта : Переменный
Битрейт : 320 Кбит/сек
Каналы : 2 канала
Расположение каналов : Front: L R
Частота : 48,0 КГц
Метод сжатия : С потерями
Размер потока : 11,8 Мбайт (4%)
Размер потока оригинала : 11,8 Мбайт (4%)
Язык : English
mdhd_Duration : 308629
pb.wtf



Скачать Jennifer Lopez - Ain't Your Mama через торрент http://s019.radikal.ru/i612/1605/5d/b2321e8c1b4c.jpg Скачать, смотреть онлайн Jennifer Lopez - Ain't Your Mama [2016 г., Pop, HDTVRip 1080p] бесплантно в хорошем качестве Год выпуска: 2016Жанр: PopПродолжительность: ... 5.5 10 2
Торрент: Зарегистрирован [2016-05-13 16:09] · скачан: 62 раз
Статус: √ проверено
Размер: 268 MB
Как cкачать? Как скачать Jennifer Lopez - Ain't Your Mama через торрент | UTorrent

28-11-2019 20:33  

Отключить всю рекламу на сайте

    Дорогой пользователь! Огромная просьба, поблагодарите релизера, оцените раздачу и оставьте свои комментарий, если Вы скачали Jennifer Lopez - Ain't Your Mama через торрент бесплатно!
    Комментировать посты могут только пользователи прошедшие не сложную регистрацию
    Показать сообщения:    

    Jennifer Lopez - Ain't Your Mama через торрент
    Скачать бесплатно Jennifer Lopez - Ain't Your Mama
    Jennifer Lopez - Ain't Your Mama скачать торрент
    Jennifer Lopez - Ain't Your Mama смотреть онлайн
    Cкачать фильм Jennifer Lopez - Ain't Your Mama бесплатно
    Jennifer Lopez - Ain't Your Mama скачать торрент в хорошем качестве
    Jennifer Lopez - Ain't Your Mama смотреть онлайн бесплатно в хорошем качестве


    Вы не можете начинать темы
    Вы не можете отвечать на сообщения
    Вы не можете редактировать свои сообщения
    Вы не можете удалять свои сообщения
    Вы не можете голосовать в опросах
    Вы не можете прикреплять файлы к сообщениям
    Вы можете скачивать файлы