Ссылка на приватное зеркало всего за 1$. Внимание количество ограничено!!!

iTunes

iTunes

iTunes

1

iTunes

iTunes

iTunes

iTunes

iTunes

30
pack

$ от Little Big

ВАЖНО

!!Акция!!

Alien_RageХит недели

RePack

Resident Evil 21

ИГРА 18+

pack

RePack

jed

!!Акция!!

Alien_Rage

RePack

fifa19

RePack

Assassins Creed: Odyssey

RePack

NEED FOR SPEED™ PAYBACK

4 сезон

9 сезон

Бесстыжие 9 сезон

Все сериалы

все сериалы на PB.wtf

RePack

FAR CRY 5
  

Падение Лондона / London Has Fallen (Бабак Наджафи) [2016, боевик, триллер, драма, криминал, WEB-DL 720p] [iTunes] pb.wtf

Падение Лондона через торрент pb.wtf

Размер: 3.17 GB | Добавлен: 4 года 1 мес. назад | Торрент скачан:556 раз
Скачать  

13-05-2016 22:57 Падение Лондона Скачать торрент  

London Has Fallen«Приготовься к кровавому аду»
Год выпуска » 2016
Страна » США, Великобритания, Болгария
Жанр » боевик, триллер, криминал
Длительность » 01:38:24
Перевод » Дублированный [iTunes]
Субтитры » Отсутствуют

В ролях
»Джерард Батлер(Mike Banning), Аарон Экхарт (Benjamin Asher), Морган Фриман (VP Trumbull), Алон Абутбул (Aamir Barkawi), Валид Зуэйтер (Kamran Barkawi), Адель Беншериф (Raza Mansoor), Мехди Дехби (Sultan Mansoor), Шивани Гаи (Amal Mansoor), Мартин Петрушев (UAV Reaper Pilot), Оуэн Дэвис (JOSC Officer), Майкл Уилдман (Agent Voight), Рада Митчелл (Leah Banning)


Режиссёр
» Бабак Наджафи / Babak Najafi

» Действие фильма начинается в Лондоне, где премьер-министр Великобритании погибает при загадочных обстоятельствах. На похоронах безусловно присутствуют руководители западного мира. Но то, что начиналось как наиболее безопасное событие на земле, превращается в опаснейшее покушение на самых мощных мировых лидеров, что в свою очередь ставит под угрозу будущее всего мира. Только три человека сохраняют надежду на предотвращение катастрофы: президент США, его верный помощник - агент спецслужбы и английский агент МИ-6, который никому не доверяет.

• Качество » WEB-DL 720p
• Формат » MKV
• Видео кодек » AVC
• Аудио кодек » AC3
• Видео »1280x536 (2.40:1), 24.000 fps, AVC, 4 130 Kbps
• Аудио » Русский (AC-3/ 6 ch / 384 kbps / 48,0 КГц / 16 bit )




Бюджет: $60 000 000
Сборы в США: $61 403 206
Сборы в мире: + $98 935 475 = $160 338 681
Сборы в России: $2 277 367
Дата мировой премьеры: 1 марта 2016
Дата российской премьеры: 17 марта 2016, «Парадиз»
General
Unique ID : 184024795985736861773873218813963214288 (0x8A71E2F24F8BC400B457B344FA8B1DD0)
Complete name : paDeH1e.L0Hd0Ha.2O16.D.WEBDL.720p.mkv
Format : Matroska
Format version : Version 2
File size : 3.17 GiB
Duration : 1h 38mn
Overall bit rate : 4 606 Kbps
Encoded date : UTC 2016-05-13 11:40:04
Writing application : mkvmerge v8.3.0 ('Over the Horizon') 64bit
Writing library : libebml v1.3.1 + libmatroska v1.4.2
DURATION : 01:38:24.192000000
NUMBER_OF_FRAMES : 184506
NUMBER_OF_BYTES : 283401216
_STATISTICS_WRITING_APP : mkvmerge v8.3.0 ('Over the Horizon') 64bit
_STATISTICS_WRITING_DATE_UTC : 2016-05-13 11:40:04
_STATISTICS_TAGS : BPS DURATION NUMBER_OF_FRAMES NUMBER_OF_BYTES

Video
ID : 1
Format : AVC
Format/Info : Advanced Video Codec
Format profile : Main@L3.1
Format settings, CABAC : No
Format settings, ReFrames : 2 frames
Codec ID : V_MPEG4/ISO/AVC
Duration : 1h 38mn
Bit rate : 4 130 Kbps
Width : 1 280 pixels
Height : 536 pixels
Display aspect ratio : 2.40:1
Frame rate mode : Constant
Frame rate : 24.000 fps
Color space : YUV
Chroma subsampling : 4:2:0
Bit depth : 8 bits
Scan type : Progressive
Bits/(Pixel*Frame) : 0.251
Stream size : 2.84 GiB (90%)
Language : English
Default : Yes
Forced : No
Color primaries : BT.709
Transfer characteristics : BT.709
Matrix coefficients : BT.709

Audio
ID : 2
Format : AC-3
Format/Info : Audio Coding 3
Mode extension : CM (complete main)
Format settings, Endianness : Big
Codec ID : A_AC3
Duration : 1h 38mn
Bit rate mode : Constant
Bit rate : 384 Kbps
Channel(s) : 6 channels
Channel positions : Front: L C R, Side: L R, LFE
Sampling rate : 48.0 KHz
Bit depth : 16 bits
Compression mode : Lossy
Stream size : 270 MiB (8%)
Language : Russian
Default : Yes
Forced : No[/code]
скриншот   скриншот   скриншот   скриншот   скриншот   скриншот  
pb.wtf



Скачать Падение Лондона через торрент http://pic1.kartinco.top/images/10/ohwc6.jpg Скачать фильм Падение Лондона через торрент бесплантно в хорошем качестве В ролях »Джерард Батлер(Mike Banning), Аарон Экхарт (Benjamin Asher), Морган Фриман (VP Trumbull), Алон Абутбул (Aamir Barkawi), Валид ... 9.4 10 17
Info! Золотая раздача, скачанное не засчитывается.
Торрент: Зарегистрирован [2016-05-13 22:57] · скачан: 556 раз
Статус: √ проверено
Размер: 3.17 GB
Как cкачать? Как скачать Падение Лондона через торрент | qTorrent

% Раздел Тема Автор DL S | L
Фильмы (Blu-ray, BD-Remux, HDDVD) [ 15.01 GB ] Падение Лондона / London Has Fallen [2016 BD Remux 1080p] [RUS Transfer] DUB [ Blu-Ray RUS] bober100 Скачать
1 | 0
Фильмы (Blu-ray, BD-Remux, HDDVD) [ 17.24 GB ] Падение Лондона / London Has Fallen [2016 Blu-ray disc 1080p] [RUS] Dub voovaz Скачать
1 | 0
Фильмы (WEB-DL 720p, 1080p) [ 3.41 GB ] Падение Лондона / London Has Fallen [2016 WEB-DL 1080p ] MeZZAPT Скачать
3 | 0
Фильмы с авторской озвучкой [ 1.46 GB ] Падение Лондона / London Has Fallen [2016 BDRip] [AVO] killermax2013 Скачать
1 | 0
Фильмы [HD 720p, 1080p] (Хороший звук DUB, MVO) [ 10.55 GB ] Падение Лондона / London Has Fallen [2016 BDRip 1080p [] smaster Скачать
1 | 0
Фильмы 2016 [DVDrip, WEB-DLRip, HDrip] (DUB, MVO) [ 1.46 GB ] Падение Лондона / London Has Fallen [2016 BDRip] DUB Twi7ter Скачать
2 | 0
R.G. Resident & PiratVoice - Фильмы, Видео [ 2.07 GB ] Падение Лондона / London Has Fallen [2016 BDRip-AVC ] schultz Скачать
1 | 0

28-11-2019 20:33  

Отключить всю рекламу на сайте

    Дорогой пользователь! Огромная просьба, поблагодарите релизера, оцените раздачу и оставьте свои комментарий, если Вы скачали Падение Лондона через торрент бесплатно! Внесите свою лепту в развитие PiratBit!
    Комментировать посты могут только пользователи прошедшие не сложную регистрацию
    Показать сообщения:    

    Падение Лондона через торрент
    Скачать бесплатно Падение Лондона
    Падение Лондона скачать торрент
    Падение Лондона смотреть онлайн
    Cкачать фильм Падение Лондона бесплатно
    Падение Лондона скачать торрент в хорошем качестве
    Падение Лондона смотреть онлайн бесплатно в хорошем качестве


    Вы не можете начинать темы
    Вы не можете отвечать на сообщения
    Вы не можете редактировать свои сообщения
    Вы не можете удалять свои сообщения
    Вы не можете голосовать в опросах
    Вы не можете прикреплять файлы к сообщениям
    Вы можете скачивать файлы