Ссылка на приватное зеркало нашего сайта всего за 1$. Внимание количество ограничено!!!

2 сезон

iTunes

1 сезон

1

iTunes

iTunes

iTunes

1 сезон

RePack

30

ИГРА 18+

pack

ВАЖНО

!!Акция!!

Alien_RageХит недели

RePack

MK11
pack

Забери бонус

RePack

jed

!!Акция!!

Alien_Rage

RePack

fifa19

RePack

Assassins Creed: Odyssey

RePack

NEED FOR SPEED™ PAYBACK

4 сезон

9 сезон

Бесстыжие 9 сезон

Все сериалы

все сериалы на PB.wtf

RePack

FAR CRY 5
  

Белый плен / Eight Below (Фрэнк Маршалл / Frank Marshall) [2005, драма, приключения, семейный, BDRip 720p от potroks] DUB + AVO pb.wtf

Белый плен через торрент pb.wtf

Раздают: 1 [ 0 KB/s ]
Размер: 5.75 GB | Добавлен: 4 года 5 мес. назад | Торрент скачан:247 раз
Скачать  

14-05-2016 05:43 Белый плен Скачать торрент  

Белый плен / Eight Below
«Трогательная история о дружбе, основанная на реальных событиях»
Год выпуска: 2005
Страна: США / Walt Disney Pictures...
Жанр: драма, приключения, семейный
Продолжительность: 02:00:33
Перевод: Дубляж [BD CEE], Авторский (одноголосый) [Ю.Немахов]
Субтитры: русские (полные + форс.), украинские (полные + форс.), английские
Навигация по главам: есть
Режиссер: Фрэнк Маршалл / Frank Marshall
В ролях:

Пол Уокер (Jerry Shepard), Брюс Гринвуд (Davis McClaren), Мун Бладгуд (Katie), Венди Крюсон (Eve McClaren), Джерард Планкет (Dr. Andy Harrison), Аугуст Шелленберг (Mindo), Джейсон Биггз (Charlie Cooper), Д.Дж. (Max -a Dog), Тимба (Max - a Dog), Кода (Maya - a Dog), Джасмин (Maya - a Dog), Апач (Old Jack - a Dog)
Описание: Действие фильма разворачивается на бескрайних просторах Антарктики. Научная экспедиция, в состав которой входят Джерри Шепард, его лучший друг Купер и геолог, отправляется на поиски метеорита.
Однако неожиданное происшествие и тяжелые погодные условия вынуждают их оставить свои собачьи упряжки и вернуться назад. И теперь восемь собак должны в течение шести месяцев бороться за выживание в ледяной пустыне и ждать, пока их спасут...

Качество: BDRip 720p
Формат: MKV
Видео кодек: AVC
Аудио кодек: AC3
Видео: 1280x534 (2.40:1), 4729 kbps, 23,976 fps, 0,289 bit/pixel
Аудио №1: AC3 / 5.1 / 48 kHz / 640 kbps / 16 bit | DUB - Blu-ray CEE
Аудио №2: AC3 / 5.1 / 48 kHz / 640 kbps / 16 bit | AVO - Ю.Немахов
Аудио №3: AC3 / 2.0 / 48 kHz / 192 kbps / 16 bit | UKR - DUB - TET
Аудио №4: AC3 / 5.1 / 48 kHz / 640 kbps / 16 bit | ENG

Код:

General
Unique ID                   : 195604283438108802563968323712585421584 (0x932803C191CAE2AF9C7E33777269D310)
Complete name               : Belyi.Plen.2006.2xRus.Ukr.Eng.BDRip.720p.-HELLYWOOD.mkv
Format                      : Matroska
Format version              : Version 4 / Version 2
File size                   : 5.75 GiB
Duration                    : 2h 0mn
Overall bit rate            : 6 834 Kbps
Movie name                  : Eight Below (2006)
Encoded date                : UTC 2016-05-05 09:51:19
Writing application         : mkvmerge v5.9.0 ('On The Loose') built on Dec 15 2012 16:39:58
Writing library             : libebml v1.3.0 + libmatroska v1.4.0

Video
ID                          : 1
Format                      : AVC
Format/Info                 : Advanced Video Codec
Format profile              : High@L4.1
Format settings, CABAC      : Yes
Format settings, ReFrames   : 9 frames
Codec ID                    : V_MPEG4/ISO/AVC
Duration                    : 2h 0mn
Bit rate                    : 4 729 Kbps
Width                       : 1 280 pixels
Height                      : 534 pixels
Display aspect ratio        : 2.40:1
Frame rate mode             : Constant
Frame rate                  : 23.976 (24000/1001) fps
Color space                 : YUV
Chroma subsampling          : 4:2:0
Bit depth                   : 8 bits
Scan type                   : Progressive
Bits/(Pixel*Frame)          : 0.289
Stream size                 : 3.86 GiB (67%)
Title                       : potroks
Writing library             : x264 core 146 r2538 121396c
Encoding settings           : cabac=1 / ref=9 / deblock=1:-3:-3 / analyse=0x3:0x113 / me=umh / subme=11 / psy=1 / psy_rd=0.96:0.01 / mixed_ref=1 / me_range=48 / chroma_me=1 / trellis=2 / 8x8dct=1 / cqm=0 / deadzone=21,11 / fast_pskip=0 / chroma_qp_offset=-3 / threads=9 / lookahead_threads=2 / sliced_threads=0 / nr=0 / decimate=0 / interlaced=0 / bluray_compat=0 / constrained_intra=0 / bframes=11 / b_pyramid=2 / b_adapt=2 / b_bias=0 / direct=3 / weightb=1 / open_gop=0 / weightp=2 / keyint=240 / keyint_min=23 / scenecut=40 / intra_refresh=0 / rc_lookahead=60 / rc=2pass / mbtree=0 / bitrate=4729 / ratetol=1.0 / qcomp=0.70 / qpmin=0 / qpmax=69 / qpstep=4 / cplxblur=20.0 / qblur=0.5 / vbv_maxrate=14000 / vbv_bufsize=14000 / nal_hrd=none / filler=0 / ip_ratio=1.40 / pb_ratio=1.30 / aq=1:0.80
Language                    : English
Default                     : Yes
Forced                      : No

Audio #1
ID                          : 2
Format                      : AC-3
Format/Info                 : Audio Coding 3
Mode extension              : CM (complete main)
Format settings, Endianness : Big
Codec ID                    : A_AC3
Duration                    : 2h 0mn
Bit rate mode               : Constant
Bit rate                    : 640 Kbps
Channel(s)                  : 6 channels
Channel positions           : Front: L C R, Side: L R, LFE
Sampling rate               : 48.0 KHz
Frame rate                  : 31.250 fps (1536 spf)
Compression mode            : Lossy
Stream size                 : 552 MiB (9%)
Title                       : Dub | DD 5.1 @ 640 kbps - Blu-ray CEE
Language                    : Russian
Default                     : Yes
Forced                      : No

Audio #2
ID                          : 3
Format                      : AC-3
Format/Info                 : Audio Coding 3
Mode extension              : CM (complete main)
Format settings, Endianness : Big
Codec ID                    : A_AC3
Duration                    : 2h 0mn
Bit rate mode               : Constant
Bit rate                    : 640 Kbps
Channel(s)                  : 6 channels
Channel positions           : Front: L C R, Side: L R, LFE
Sampling rate               : 48.0 KHz
Frame rate                  : 31.250 fps (1536 spf)
Compression mode            : Lossy
Stream size                 : 552 MiB (9%)
Title                       : AVO | DD 5.1 @ 640 kbps - Yu.Nemahov
Language                    : Russian
Default                     : No
Forced                      : No

Audio #3
ID                          : 4
Format                      : AC-3
Format/Info                 : Audio Coding 3
Mode extension              : CM (complete main)
Format settings, Endianness : Big
Codec ID                    : A_AC3
Duration                    : 2h 0mn
Bit rate mode               : Constant
Bit rate                    : 192 Kbps
Channel(s)                  : 2 channels
Channel positions           : Front: L R
Sampling rate               : 48.0 KHz
Frame rate                  : 31.250 fps (1536 spf)
Compression mode            : Lossy
Stream size                 : 166 MiB (3%)
Title                       : Dub | DD 2.0 @ 192 kbps - TET
Language                    : Ukrainian
Default                     : No
Forced                      : No

Audio #4
ID                          : 5
Format                      : AC-3
Format/Info                 : Audio Coding 3
Mode extension              : CM (complete main)
Format settings, Endianness : Big
Codec ID                    : A_AC3
Duration                    : 2h 0mn
Bit rate mode               : Constant
Bit rate                    : 640 Kbps
Channel(s)                  : 6 channels
Channel positions           : Front: L C R, Side: L R, LFE
Sampling rate               : 48.0 KHz
Frame rate                  : 31.250 fps (1536 spf)
Compression mode            : Lossy
Stream size                 : 552 MiB (9%)
Title                       : Original | DD 5.1 @ 640 kbps
Language                    : English
Default                     : No
Forced                      : No

Text #1
ID                          : 6
Format                      : UTF-8
Codec ID                    : S_TEXT/UTF8
Codec ID/Info               : UTF-8 Plain Text
Title                       : Forced
Language                    : Russian
Default                     : Yes
Forced                      : No

Text #2
ID                          : 7
Format                      : UTF-8
Codec ID                    : S_TEXT/UTF8
Codec ID/Info               : UTF-8 Plain Text
Title                       : Blu-ray
Language                    : Russian
Default                     : No
Forced                      : No

Text #3
ID                          : 8
Format                      : UTF-8
Codec ID                    : S_TEXT/UTF8
Codec ID/Info               : UTF-8 Plain Text
Title                       : Forced
Language                    : Ukrainian
Default                     : No
Forced                      : No

Text #4
ID                          : 9
Format                      : UTF-8
Codec ID                    : S_TEXT/UTF8
Codec ID/Info               : UTF-8 Plain Text
Language                    : Ukrainian
Default                     : No
Forced                      : No

Text #5
ID                          : 10
Format                      : UTF-8
Codec ID                    : S_TEXT/UTF8
Codec ID/Info               : UTF-8 Plain Text
Language                    : English
Default                     : No
Forced                      : No

Menu
00:00:00.000                : :Chapter 01
00:04:22.929                : :Chapter 02
00:14:58.439                : :Chapter 03
00:22:54.790                : :Chapter 04
00:30:10.767                : :Chapter 05
00:39:53.516                : :Chapter 06
00:54:29.140                : :Chapter 07
01:01:39.487                : :Chapter 08
01:07:02.560                : :Chapter 09
01:19:23.758                : :Chapter 10
01:28:35.226                : :Chapter 11
01:37:59.665                : :Chapter 12
01:43:03.051                : :Chapter 13
01:52:54.976                : :Chapter 14
02:00:23.632                : :Chapter 15

pb.wtf



Скачать Белый плен через торрент http://i79.fastpic.ru/big/2016/0514/2c/24f1d004b1a5548c6d9e2b419598f72c.png Скачать фильм Белый плен через торрент бесплантно в хорошем качестве Описание: Действие фильма разворачивается на бескрайних просторах Антарктики. Научная экспедиция, в состав которой входят Джерри Шепард, ... 10 10 7
Info! Золотая раздача, скачанное не засчитывается.
Торрент: Зарегистрирован [2016-05-14 05:43] · скачан: 247 раз
Статус: √ проверено
Размер: 5.75 GB
Как cкачать? Как скачать Белый плен через торрент | qTorrent

28-11-2019 20:33  

Отключить всю рекламу на сайте

    Дорогой пользователь! Огромная просьба, поблагодарите релизера, оцените раздачу и оставьте свои комментарий, если Вы скачали Белый плен через торрент бесплатно! Внесите свою лепту в развитие PiratBit!
    Комментировать посты могут только пользователи прошедшие не сложную регистрацию
    Показать сообщения:    

    Белый плен через торрент
    Скачать бесплатно Белый плен
    Белый плен скачать торрент
    Белый плен смотреть онлайн
    Cкачать фильм Белый плен бесплатно
    Белый плен скачать торрент в хорошем качестве
    Белый плен смотреть онлайн бесплатно в хорошем качестве


    Вы не можете начинать темы
    Вы не можете отвечать на сообщения
    Вы не можете редактировать свои сообщения
    Вы не можете удалять свои сообщения
    Вы не можете голосовать в опросах
    Вы не можете прикреплять файлы к сообщениям
    Вы можете скачивать файлы