Ссылка на приватное зеркало нашего сайта всего за 1$. Внимание количество ограничено!!!

2 сезон

iTunes

1 сезон

1

iTunes

iTunes

iTunes

1 сезон

RePack

30

ИГРА 18+

pack

ВАЖНО

!!Акция!!

Alien_RageХит недели

RePack

MK11
pack

Забери бонус

RePack

jed

!!Акция!!

Alien_Rage

RePack

fifa19

RePack

Assassins Creed: Odyssey

RePack

NEED FOR SPEED™ PAYBACK

4 сезон

9 сезон

Бесстыжие 9 сезон

Все сериалы

все сериалы на PB.wtf

RePack

FAR CRY 5
  

Кукла / The Boy (Уильям Брент Белл) [2016, ужасы, триллер, детектив, BDRip 720p, Дубляж] iTunes pb.wtf

Кукла через торрент pb.wtf

Размер: 4.63 GB | Добавлен: 4 года 5 мес. назад | Торрент скачан:267 раз
Скачать  

14-05-2016 10:58 Кукла Скачать торрент  

«Каждый ребенок должен быть любим»
Год выпуска » 2015
Страна » США, Китай, Канада
Жанр » Ужасы, триллер
Продолжительность » 1 ч. 37 м.
Перевод » Профессиональный (Дубляж) [iTunes]
Субтитры » Английские

В ролях
»Лорен Кохэн, Руперт Эванс, Джеймс Расселл, Джим Нортон, Диана Хардкэсл, Бен Робсон, Джетт Клине, Lily Pater, Matthew Walker, Стефани Николь Лемелин


Режиссёр
» Уильям Брент Белл

» Благополучная английская семья нанимает для своего сына американскую няню. Приехав на новое место работы, няня обнаруживает, что ее подопечный — вовсе не настоящий мальчик, а кукла в человеческий рост, с которой обращаются, как с живым человеком. Но тревожные события, происходящие после того, как няня нарушает установленные строгие правила, заставляют её поверить в то, что кукла действительно может быть живой…

• Качество » BDRip (720p)
• Формат » MKV
• Видео кодек » AVC
• Аудио кодек » AC-3,DTS
• Видео »MPEG-4 AVC, 4888 Кбит/с, 1280x536, 23,976 кадра/сек
• Аудио » Русский (AC-3/ 6 ch / 384 kbps / 48,0 КГц / 16 bit )
• Аудио » Английский (DTS / 6 ch / 1510 kbps / 48,0 КГц / 16 bit)




Бюджет: $10 000 000
Сборы в России: $992 667
Сборы в мире:+ $28 368 811 = $64 188 367
Зрители: Россия Россия 309.3 тыс.
Премьера (мир): 20 января 2016
Премьера (РФ): 28 января 2016, «Парадиз»
Релиз на DVD: 11 мая 2016, «Парадиз Медиа»
Рейтинг MPAA: Лицам до 16 лет обязательно присутствие взрослого
Общее
Уникальный идентификатор : 252621653613338424851709079399155161056 (0xBE0D292590C80E2B8AE93C006C9CD7E0)
Полное имя : E:\The.Boy.2016.BDRip.720p.mkv
Формат : Matroska
Версия формата : Version 4 / Version 2
Размер файла : 4,63 Гбайт
Продолжительность : 1 ч. 37 м.
Общий поток : 6780 Кбит/сек
Название фильма : The.Boy.2016.BDRip.720p
Дата кодирования : UTC 2016-04-26 23:09:03
Программа кодирования : mkvmerge v8.3.0 ('Over the Horizon') 64bit
Библиотека кодирования : libebml v1.3.1 + libmatroska v1.4.2
DURATION : 01:37:47.872000000
NUMBER_OF_FRAMES : 550113
NUMBER_OF_BYTES : 1106827356
_STATISTICS_WRITING_APP : mkvmerge v8.3.0 ('Over the Horizon') 64bit
_STATISTICS_WRITING_DATE_UTC : 2016-04-26 23:09:03
_STATISTICS_TAGS : BPS DURATION NUMBER_OF_FRAMES NUMBER_OF_BYTES

Видео
Идентификатор : 1
Формат : AVC
Формат/Информация : Advanced Video Codec
Профиль формата : High@L4.1
Параметр CABAC формата : Да
Параметр ReFrames формата : 5 кадров
Идентификатор кодека : V_MPEG4/ISO/AVC
Продолжительность : 1 ч. 37 м.
Битрейт : 4888 Кбит/сек
Ширина : 1280 пикселей
Высота : 536 пикселей
Соотношение сторон : 2,40:1
Режим частоты кадров : Постоянный
Частота кадров : 23,976 кадра/сек
Цветовое пространство : YUV
Субдискретизация насыщенности : 4:2:0
Битовая глубина : 8 бит
Тип развёртки : Прогрессивная
Бит/(Пиксели*Кадры) : 0.297
Размер потока : 3,25 Гбайт (70%)
Библиотека кодирования : x264 core 148 r2692 64f4e24
Настройки программы : cabac=1 / ref=5 / deblock=1:0:0 / analyse=0x3:0x133 / me=umh / subme=7 / psy=1 / psy_rd=1.00:0.00 / mixed_ref=1 / me_range=16 / chroma_me=1 / trellis=1 / 8x8dct=1 / cqm=0 / deadzone=21,11 / fast_pskip=0 / chroma_qp_offset=-2 / threads=17 / lookahead_threads=2 / sliced_threads=0 / nr=0 / decimate=1 / interlaced=0 / bluray_compat=0 / constrained_intra=0 / bframes=3 / b_pyramid=2 / b_adapt=1 / b_bias=0 / direct=1 / weightb=1 / open_gop=0 / weightp=2 / keyint=250 / keyint_min=23 / scenecut=40 / intra_refresh=0 / rc_lookahead=40 / rc=2pass / mbtree=1 / bitrate=4888 / ratetol=1.0 / qcomp=0.60 / qpmin=0 / qpmax=69 / qpstep=4 / cplxblur=20.0 / qblur=0.5 / ip_ratio=1.40 / aq=1:1.00
Язык : English
Default : Да
Forced : Нет
DURATION : 01:37:47.830000000
NUMBER_OF_FRAMES : 140687
NUMBER_OF_BYTES : 3583803213
_STATISTICS_WRITING_APP : mkvmerge v8.3.0 ('Over the Horizon') 64bit
_STATISTICS_WRITING_DATE_UTC : 2016-04-26 23:09:03
_STATISTICS_TAGS : BPS DURATION NUMBER_OF_FRAMES NUMBER_OF_BYTES

Аудио #1
Идентификатор : 2
Формат : AC-3
Формат/Информация : Audio Coding 3
Расширение режима : CM (complete main)
Параметр Endianness формата : Big
Идентификатор кодека : A_AC3
Продолжительность : 1 ч. 37 м.
Вид битрейта : Постоянный
Битрейт : 384 Кбит/сек
Каналы : 6 каналов
Расположение каналов : Front: L C R, Side: L R, LFE
Частота : 48,0 КГц
Битовая глубина : 16 бит
Метод сжатия : С потерями
Задержка видео : 25 с.
Размер потока : 269 Мбайт (6%)
Заголовок : DUB [iTunes]
Язык : Russian
Default : Да
Forced : Нет

Аудио #2
Идентификатор : 3
Формат : DTS
Формат/Информация : Digital Theater Systems
Режим : 16
Параметр Endianness формата : Big
Идентификатор кодека : A_DTS
Продолжительность : 1 ч. 37 м.
Вид битрейта : Постоянный
Битрейт : 1509 Кбит/сек
Каналы : 6 каналов
Расположение каналов : Front: L C R, Side: L R, LFE
Частота : 48,0 КГц
Битовая глубина : 24 бит
Метод сжатия : С потерями
Размер потока : 1,03 Гбайт (22%)
Язык : English
Default : Нет
Forced : Нет

Текст
Идентификатор : 4
Формат : UTF-8
Идентификатор кодека : S_TEXT/UTF8
Идентификатор кодека/Информация : UTF-8 Plain Text
Язык : English
Default : Нет
Forced : Нет

Меню
00:00:00.000 : en:1
00:05:50.000 : en:2
00:09:54.000 : en:3
00:14:06.000 : en:4
00:18:15.000 : en:5
00:23:56.000 : en:6
00:27:58.000 : en:7
00:32:20.000 : en:8
00:38:15.000 : en:9
00:41:41.000 : en:10
00:45:07.000 : en:11
00:51:32.000 : en:12
00:54:22.000 : en:13
01:01:28.000 : en:14
01:05:37.000 : en:15
01:09:27.000 : en:16
01:15:56.000 : en:17
01:19:54.000 : en:18
01:27:06.000 : en:19
01:33:21.000 : en:20
[/code]
скриншот   скриншот   скриншот   скриншот  
pb.wtf



Скачать Кукла через торрент http://pic1.kartinco.top/images/10/vdd5d.jpg Скачать фильм Кукла через торрент бесплантно в хорошем качестве В ролях »Лорен Кохэн, Руперт Эванс, Джеймс Расселл, Джим Нортон, Диана Хардкэсл, Бен Робсон, Джетт Клине, Lily Pater, Matthew Walker, ... 9.2 10 11
Info! Золотая раздача, скачанное не засчитывается.
Торрент: Зарегистрирован [2016-05-14 10:58] · скачан: 267 раз
Статус: T временная
Размер: 4.63 GB
Как cкачать? Как скачать Кукла через торрент | qTorrent

% Раздел Тема Автор DL S | L
Ultra HD (UHD: 2K, 4K, 8K) — видео сверхвысокой чёткости [ 37.07 GB ] Кукла 2: Брамс / Brahms: The Boy II [2020 UHD BDRemux 2160p] bober100 Скачать
1 | 0
Фильмы (WEB-DL 720p, 1080p) [ 3.53 GB ] Кукла 2: Брамс / Brahms: The Boy II [2020 WEB-DL 1080p] bober100 Скачать
2 | 0
Фильмы 2019-2020 [DVDrip, WEB-DLRip, HDrip] (DUB, MVO) [ 1.42 GB ] Кукла 2: Брамс / Brahms: The Boy II [2020 BDRip] - Twi7ter Скачать
20 | 0
Фильмы (Blu-ray, BD-Remux, HDDVD) [ 23.46 GB ] Кукла 2: Брамс / Brahms: The Boy II [2020 BD Remux 1080p] bober100 Скачать
1 | 0
Фильмы [HD 720p, 1080p] (Хороший звук DUB, MVO) [ 5.9 GB ] Кукла 2: Брамс / Brahms: The Boy II [2020 BDRip 1080p] bober100 Скачать
1 | 0
Фильмы 2019-2020 [DVDrip, WEB-DLRip, HDrip] (DUB, MVO) [ 809 MB ] Кукла 2: Брамс / Brahms: The Boy II [2020 HDRip] bober100 Скачать
1 | 0
Фильмы [HD 720p, 1080p] (Хороший звук DUB, MVO) [ 2.72 GB ] Кукла 2: Брамс / Brahms: The Boy II [2020 BDRip 720p] bober100 Скачать
2 | 0


Последний раз редактировалось: $-DRON-$ (2016-05-17 17:04), всего редактировалось 3 раз(а)

28-11-2019 20:33  

Отключить всю рекламу на сайте

14-05-2016 11:10 Кукла Скачать торрент  

$-DRON-$,

Цитата:

Длительность » 01:33:19

1 ч. 37 м.

Цитата:

Режиссёр
» Бен Стиллер

Уильям Брент Белл

Цитата:

Видео »MPEG-4 AVC, 4888 Кбит/с, 1280x536

где частота смены кадра (fps)?pb.wtf



    Дорогой пользователь! Огромная просьба, поблагодарите релизера, оцените раздачу и оставьте свои комментарий, если Вы скачали Кукла через торрент бесплатно! Внесите свою лепту в развитие PiratBit!
    Комментировать посты могут только пользователи прошедшие не сложную регистрацию
    Показать сообщения:    

    Кукла через торрент
    Скачать бесплатно Кукла
    Кукла скачать торрент
    Кукла смотреть онлайн
    Cкачать фильм Кукла бесплатно
    Кукла скачать торрент в хорошем качестве
    Кукла смотреть онлайн бесплатно в хорошем качестве


    Вы не можете начинать темы
    Вы не можете отвечать на сообщения
    Вы не можете редактировать свои сообщения
    Вы не можете удалять свои сообщения
    Вы не можете голосовать в опросах
    Вы не можете прикреплять файлы к сообщениям
    Вы можете скачивать файлы