Ссылка на приватное зеркало нашего сайта всего за 1$. Внимание количество ограничено!!!

2 сезон

iTunes

1 сезон

1

iTunes

iTunes

iTunes

1 сезон

RePack

30

ИГРА 18+

pack

ВАЖНО

!!Акция!!

Alien_RageХит недели

RePack

MK11
pack

Забери бонус

RePack

jed

!!Акция!!

Alien_Rage

RePack

fifa19

RePack

Assassins Creed: Odyssey

RePack

NEED FOR SPEED™ PAYBACK

4 сезон

9 сезон

Бесстыжие 9 сезон

Все сериалы

все сериалы на PB.wtf

RePack

FAR CRY 5
  

Тебе конец / You're Next (Адам Вингард) [2013, триллер, ужасы, BDRip 720p by msltel] DUB, 3 x AVO pb.wtf

Тебе конец через торрент pb.wtf

Размер: 3.54 GB | Добавлен: 4 года 5 мес. назад | Торрент скачан:132 раза
Скачать  

14-05-2016 14:55 Тебе конец Скачать торрент  

Название: Тебе конец
Оригинальное название: You're Next
Год выпуска: 2013
Страна: США
Жанр: триллер, ужасы
Продолжительность: 01:34:23
Перевод: дублированный, авторский

Режиссёр: Адам Вингард

В ролях: Шарни Винсон, Николас Туччи, Венди Гленн, Эй Джей Боуэн, Джо Сванберг, Барбара Крэмптон, Роб Моран, Маргарет Лэни, Эми Саймец, Ти Уэст

Описание: Банда маньяков в звериных масках, вооружённых топорами и арбалетами, вторгается в загородный дом семьи Дэвисон. Жертвы оказываются в западне, но среди них находится один достойный противник, способный дать отпор убийцам...



Качество: BDRip 720p Сравнение с исходником
Формат: MKV
Видео: MPEG-4 AVC, 3190 Кбит/с, 1280x534, 23,976 кадра/с
Аудио 1: русский, AC3, 384 kbps, 6 ch, 48 kHz [дублированный]
Аудио 2: русский, AC3, 448 kbps, 6 ch, 48 kHz [авторский, Андрей Дольский]
Аудио 3: русский, AC3, 448 kbps, 6 ch, 48 kHz [авторский, Алексей Матвеев]
Аудио 4: русский, AC3, 448 kbps, 6 ch, 48 kHz [авторский, Михаил Яроцкий]
Аудио 5: английский, AC3, 448 kbps, 6 ch, 48 kHz [оригинал]
Субтитры 1: русские
Субтитры 2: английские
---[Information] [14.05.2016 1:23:50] raw [info]: 1280x534p 1:1 @ 24000/1001 fps (cfr)
---[Information] [14.05.2016 1:23:50] x264 [info]: using SAR=1/1
---[Information] [14.05.2016 1:23:50] x264 [info]: using cpu capabilities: MMX2 SSE2Fast SSSE3 SSE4.2 AVX
---[Information] [14.05.2016 1:23:50] x264 [info]: profile High, level 4.1
---[Information] [14.05.2016 6:09:10] x264 [info]: frame I:835 Avg QP:12.63 size: 78529
---[Information] [14.05.2016 6:09:10] x264 [info]: frame P:27574 Avg QP:13.74 size: 36315
---[Information] [14.05.2016 6:09:10] x264 [info]: frame B:107383 Avg QP:15.86 size: 11096
---[Information] [14.05.2016 6:09:10] x264 [info]: consecutive B-frames: 2.1% 2.6% 8.3% 8.2% 14.4% 45.5% 7.7% 1.5% 3.8% 3.1% 2.9%
---[Information] [14.05.2016 6:09:10] x264 [info]: mb I I16..4: 18.6% 68.1% 13.4%
---[Information] [14.05.2016 6:09:10] x264 [info]: mb P I16..4: 4.0% 25.6% 2.2% P16..4: 29.6% 22.7% 11.8% 0.0% 0.0% skip: 4.0%
---[Information] [14.05.2016 6:09:10] x264 [info]: mb B I16..4: 0.6% 1.8% 0.1% B16..8: 39.3% 15.9% 3.6% direct: 5.8% skip:32.9% L0:46.9% L1:46.1% BI: 7.1%
---[Information] [14.05.2016 6:09:10] avs [info]: AviSynth+ 0.1 (r1576, x86)
---[Information] [14.05.2016 6:09:10] x264 [info]: 8x8 transform intra:77.7% inter:52.3%
---[Information] [14.05.2016 6:09:10] x264 [info]: coded y,uvDC,uvAC intra: 82.7% 82.7% 70.3% inter: 22.6% 19.7% 5.0%
---[Information] [14.05.2016 6:09:10] avs [info]: Video colorspace: YV12
---[Information] [14.05.2016 6:09:10] x264 [info]: i16 v,h,dc,p: 39% 8% 19% 34%
---[Information] [14.05.2016 6:09:10] avs [info]: Video resolution: 1280x534
---[Information] [14.05.2016 6:09:10] x264 [info]: i8 v,h,dc,ddl,ddr,vr,hd,vl,hu: 16% 9% 20% 7% 9% 10% 9% 10% 10%
---[Information] [14.05.2016 6:09:10] avs [info]: Video framerate: 24000/1001
---[Information] [14.05.2016 6:09:10] x264 [info]: i4 v,h,dc,ddl,ddr,vr,hd,vl,hu: 21% 7% 7% 9% 13% 13% 11% 10% 9%
---[Information] [14.05.2016 6:09:10] avs [info]: Video framecount: 135792
---[Information] [14.05.2016 6:09:10] x264 [info]: i8c dc,h,v,p: 52% 20% 17% 11%
---[Information] [14.05.2016 6:09:10] avs4x26x [info]: "x264_64" - --level 4.1 --tune film --crf 17.8 --keyint 230 --bframes 10 --b-adapt 2 --ref 9 --vbv-bufsize 50000 --vbv-maxrate 40000 --no-mbtree --merange 32 --me umh --subme 10 --trellis 2 --sar 1:1 --output "D:\Rip\Тебе конец!.2011.BDRemux\Тебе конец!.2011.BDRip.720p.mkv" --frames 135792 --fps 24000/1001 --input-res 1280x534 --input-csp i420
---[Information] [14.05.2016 6:09:10] x264 [info]: Weighted P-Frames: Y:3.8% UV:2.3%
---[Information] [14.05.2016 6:09:10] x264 [info]: ref P L0: 46.0% 5.8% 20.1% 7.3% 6.8% 4.3% 4.4% 2.3% 2.6% 0.4% 0.0%
---[Information] [14.05.2016 6:09:10] x264 [info]: ref B L0: 67.8% 14.2% 7.0% 4.0% 2.8% 2.4% 1.3% 0.5%
---[Information] [14.05.2016 6:09:10] x264 [info]: ref B L1: 91.7% 8.3%
---[Information] [14.05.2016 6:09:10] x264 [info]: kb/s:3190.16
---[Information] [14.05.2016 6:09:10] encoded 135792 frames, 7.93 fps, 3190.16 kb/s
--[Information] [14.05.2016 6:09:10] Final statistics
---[Information] [14.05.2016 6:09:10] Constant Quality Mode: Quality 17 computed...
---[Information] [14.05.2016 6:09:10] Video Bitrate Obtained (approximate): 3191 kbit/s
--[Information] [14.05.2016 6:09:10] MediaInfo
---[Information] [14.05.2016 6:09:10] File: D:\Rip\Тебе конец!.2011.BDRemux\Тебе конец!.2011.BDRip.720p.mkv

Общее
Уникальный идентификатор : 176258755168257734117436343838217748879 (0x849A33927B8990A5A326994E255A418F)
Полное имя : D:\Video\Тебе конец!.2011.BDRip.720p.mkv
Формат : Matroska
Версия формата : Version 4 / Version 2
Размер файла : 3,54 Гбайт
Продолжительность : 1 ч. 34 м.
Общий поток : 5369 Кбит/сек
Дата кодирования : UTC 2016-05-14 02:12:58
Программа кодирования : mkvmerge v8.2.0 ('World of Adventure') 64bit
Библиотека кодирования : libebml v1.3.1 + libmatroska v1.4.2

Видео
Идентификатор : 1
Формат : AVC
Формат/Информация : Advanced Video Codec
Профиль формата : High@L4.1
Параметр CABAC формата : Да
Параметр ReFrames формата : 9 кадров
Идентификатор кодека : V_MPEG4/ISO/AVC
Продолжительность : 1 ч. 34 м.
Битрейт : 3190 Кбит/сек
Ширина : 1280 пикселей
Высота : 534 пикселя
Соотношение сторон : 2,40:1
Режим частоты кадров : Постоянный
Частота кадров : 23,976 (24000/1001) кадра/сек
Цветовое пространство : YUV
Субдискретизация насыщенности : 4:2:0
Битовая глубина : 8 бит
Тип развёртки : Прогрессивная
Бит/(Пиксели*Кадры) : 0.195
Размер потока : 2,10 Гбайт (59%)
Библиотека кодирования : x264 core 146 r2538 121396c
Настройки программы : cabac=1 / ref=9 / deblock=1:-1:-1 / analyse=0x3:0x113 / me=umh / subme=10 / psy=1 / psy_rd=1.00:0.15 / mixed_ref=1 / me_range=32 / chroma_me=1 / trellis=2 / 8x8dct=1 / cqm=0 / deadzone=21,11 / fast_pskip=1 / chroma_qp_offset=-3 / threads=6 / lookahead_threads=1 / sliced_threads=0 / nr=0 / decimate=1 / interlaced=0 / bluray_compat=0 / constrained_intra=0 / bframes=10 / b_pyramid=2 / b_adapt=2 / b_bias=0 / direct=1 / weightb=1 / open_gop=0 / weightp=2 / keyint=230 / keyint_min=23 / scenecut=40 / intra_refresh=0 / rc_lookahead=40 / rc=crf / mbtree=0 / crf=17.8 / qcomp=0.60 / qpmin=0 / qpmax=69 / qpstep=4 / vbv_maxrate=40000 / vbv_bufsize=50000 / crf_max=0.0 / nal_hrd=none / filler=0 / ip_ratio=1.40 / pb_ratio=1.30 / aq=1:1.00
Язык : English
Default : Да
Forced : Нет

Аудио #1
Идентификатор : 2
Формат : AC-3
Формат/Информация : Audio Coding 3
Расширение режима : CM (complete main)
Параметр Endianness формата : Big
Идентификатор кодека : A_AC3
Продолжительность : 1 ч. 34 м.
Вид битрейта : Постоянный
Битрейт : 384 Кбит/сек
Каналы : 6 каналов
Расположение каналов : Front: L C R, Side: L R, LFE
Частота : 48,0 КГц
Частота кадров : 31,250 кадров/сек (1536 spf)
Метод сжатия : С потерями
Размер потока : 259 Мбайт (7%)
Заголовок : DUB
Язык : Russian
Default : Да
Forced : Нет

Аудио #2
Идентификатор : 3
Формат : AC-3
Формат/Информация : Audio Coding 3
Расширение режима : CM (complete main)
Параметр Endianness формата : Big
Идентификатор кодека : A_AC3
Продолжительность : 1 ч. 34 м.
Вид битрейта : Постоянный
Битрейт : 448 Кбит/сек
Каналы : 6 каналов
Расположение каналов : Front: L C R, Side: L R, LFE
Частота : 48,0 КГц
Частота кадров : 31,250 кадров/сек (1536 spf)
Метод сжатия : С потерями
Размер потока : 302 Мбайт (8%)
Заголовок : AVO (Андрей Дольский)
Язык : Russian
Default : Нет
Forced : Нет

Аудио #3
Идентификатор : 4
Формат : AC-3
Формат/Информация : Audio Coding 3
Расширение режима : CM (complete main)
Параметр Endianness формата : Big
Идентификатор кодека : A_AC3
Продолжительность : 1 ч. 34 м.
Вид битрейта : Постоянный
Битрейт : 448 Кбит/сек
Каналы : 6 каналов
Расположение каналов : Front: L C R, Side: L R, LFE
Частота : 48,0 КГц
Частота кадров : 31,250 кадров/сек (1536 spf)
Метод сжатия : С потерями
Размер потока : 302 Мбайт (8%)
Заголовок : AVO (Алексей Матвеев)
Язык : Russian
Default : Нет
Forced : Нет

Аудио #4
Идентификатор : 5
Формат : AC-3
Формат/Информация : Audio Coding 3
Расширение режима : CM (complete main)
Параметр Endianness формата : Big
Идентификатор кодека : A_AC3
Продолжительность : 1 ч. 34 м.
Вид битрейта : Постоянный
Битрейт : 448 Кбит/сек
Каналы : 6 каналов
Расположение каналов : Front: L C R, Side: L R, LFE
Частота : 48,0 КГц
Частота кадров : 31,250 кадров/сек (1536 spf)
Метод сжатия : С потерями
Размер потока : 302 Мбайт (8%)
Заголовок : AVO (Михаил Яроцкий)
Язык : Russian
Default : Нет
Forced : Нет

Аудио #5
Идентификатор : 6
Формат : AC-3
Формат/Информация : Audio Coding 3
Расширение режима : CM (complete main)
Параметр Endianness формата : Big
Идентификатор кодека : A_AC3
Продолжительность : 1 ч. 34 м.
Вид битрейта : Постоянный
Битрейт : 448 Кбит/сек
Каналы : 6 каналов
Расположение каналов : Front: L C R, Side: L R, LFE
Частота : 48,0 КГц
Частота кадров : 31,250 кадров/сек (1536 spf)
Метод сжатия : С потерями
Размер потока : 302 Мбайт (8%)
Заголовок : Original
Язык : English
Default : Нет
Forced : Нет

Текст #1
Идентификатор : 7
Формат : UTF-8
Идентификатор кодека : S_TEXT/UTF8
Идентификатор кодека/Информация : UTF-8 Plain Text
Продолжительность : 1 ч. 30 м.
Битрейт : 62 бит/сек
Count of elements : 732
Размер потока : 41,8 Кбайт (0%)
Заголовок : русский
Язык : Russian
Default : Нет
Forced : Нет

Текст #2
Идентификатор : 8
Формат : UTF-8
Идентификатор кодека : S_TEXT/UTF8
Идентификатор кодека/Информация : UTF-8 Plain Text
Продолжительность : 1 ч. 30 м.
Битрейт : 37 бит/сек
Count of elements : 720
Размер потока : 24,6 Кбайт (0%)
Заголовок : английский
Язык : English
Default : Нет
Forced : Нет
pb.wtf



Скачать Тебе конец через торрент http://s020.radikal.ru/i709/1605/4c/4c0457444e22.jpg Скачать фильм Тебе конец через торрент бесплантно в хорошем качестве Описание: Банда маньяков в звериных масках, вооружённых топорами и арбалетами, вторгается в загородный дом семьи Дэвисон. Жертвы ... 5.5 10 2
Info! Золотая раздача, скачанное не засчитывается.
Торрент: Зарегистрирован [2016-05-14 14:55] · скачан: 132 раз
Статус: √ проверено
Размер: 3.54 GB
Как cкачать? Как скачать Тебе конец через торрент | qTorrent

28-11-2019 20:33  

Отключить всю рекламу на сайте

16-05-2016 11:10 Тебе конец Скачать торрент  

Не плохой фильм кто не смотрел,посмотрите! pb.wtf



    Дорогой пользователь! Огромная просьба, поблагодарите релизера, оцените раздачу и оставьте свои комментарий, если Вы скачали Тебе конец через торрент бесплатно! Внесите свою лепту в развитие PiratBit!
    Комментировать посты могут только пользователи прошедшие не сложную регистрацию
    Показать сообщения:    

    Тебе конец через торрент
    Скачать бесплатно Тебе конец
    Тебе конец скачать торрент
    Тебе конец смотреть онлайн
    Cкачать фильм Тебе конец бесплатно
    Тебе конец скачать торрент в хорошем качестве
    Тебе конец смотреть онлайн бесплатно в хорошем качестве


    Вы не можете начинать темы
    Вы не можете отвечать на сообщения
    Вы не можете редактировать свои сообщения
    Вы не можете удалять свои сообщения
    Вы не можете голосовать в опросах
    Вы не можете прикреплять файлы к сообщениям
    Вы можете скачивать файлы