2 сезон

iTunes

MVO

1

2 сезон

iTunes

iTunes

1 сезон

RePack

30

Новинка

ВАЖНО

ИГРА 18+

pack

RePack

MK11
pack

Легкие деньги

RePack

jed

RePack

fifa19

RePack

RDR2

RePack

NEED FOR SPEED™ PAYBACK

4 сезон

9 сезон

Бесстыжие 9 сезон

Все сериалы

все сериалы на PB.wtf

RePack

FAR CRY 5

Anonymous, доброй ночи, мы не успеваем собрать деньги на оплату серверов за декабрь и январь, помогите нам пожалуйста в это трудное время. В качестве благодарности мы отключим Вам всю рекламу на сайте (укажите свой ник в строку Ваше имя)!

×
  
Magnet ссылка

Uncharted 4: Путь вора / Uncharted 4: A Thief’s End (Нил Дракманн, Брюс Страли) [2016 г., Игрофильм, WEBRip 1080p, Дубляж [Официальный] pb.wtf

Uncharted 4: Путь вора через торрент pb.wtf

Размер: 9.06 GB | Добавлен: 4 года 8 мес. назад | Торрент скачан:158 раз
Скачать  

15-05-2016 18:12 Uncharted 4: Путь вора Скачать торрент  

Uncharted 4: Путь вора / Uncharted 4: A Thief’s End
Год выпуска: 2016
Страна: США, GamingWalkDi
Жанр: Игрофильм
Продолжительность: 06:26:21
Перевод: Дубляж [Официальный]
Субтитры: Русский хардсаб [Экранные надписи и тп.]

Режиссер: Нил Дракманн, Брюс Страли



В ролях: Нолан Норт, Трой Бэйкер, Ричард МакГонагл, Эмили Роуз, Уоррен Коул, Лора Бэйли, Брэндон Скотт и др.

Описание:

Через три года после событий «Uncharted 3: Иллюзии Дрейка», Натан Дрейк как будто бы покинул мир охотников за сокровищами. Однако судьба бросает ему новый вызов, когда в жизни Дрейка вновь появляется его брат, Сэм, с просьбой спасти его жизнь. Он предлагает Дрейку приключение, от которого тот не может отказаться.

Охотясь за давно потерянными сокровищами капитана Генри Эвери, Сэм и Дрейк отправляются на поиски Либерталии, пиратской утопии глубоко в лесах Мадагаскара. «Uncharted 4: Путь вора» берет игроков в путешествие по всему миру, через поросшие джунглями острова, затерянные города и заснеженные вершины на поиски сокровища Эвери.

Качество:WEBRip 1080p
Формат: MPEG-4
Видео кодек: AVC
Аудио кодек: AAC
Видео: 1920x1080, 29.970 fps, MPEG-4 AVC ~3221 kbps avg
Аудио#1: AAC / 2 ch / 126 kbps / 44,0 КГц / 16 bit




Данное видео позиционируется как ИГРОФИЛЬМ (без комментариев). В игрофильме присутствуют все катсцены + урезанный геймплей (только геймплей который делает игрофильм цельным и сцены плавно перетекающие из геймплея в катсцену). Также хочу отметить и то, что сжимать Uncharted 4 в 1,5 или 2 часа экранного фильма просто невозможно, потеряются многие ключевые сюжетные повороты, да и вообще в игре геймплея кот наплакал, так как в основном в игре преобладают сами катсцены и геймплей плавно переходящий в катсцену.

Complete name : Uncharted.4.A.Thiefs.End.2016.D.WEBRip.1080p.mp4
Format : MPEG-4
Format profile : Base Media
Codec ID : isom
File size : 9.06 GiB
Duration : 6h 26mn
Overall bit rate : 3 357 Kbps
Writing application : Lavf56.40.101

Video
ID : 1
Format : AVC
Format/Info : Advanced Video Codec
Format profile : High@L4.0
Format settings, CABAC : Yes
Format settings, ReFrames : 2 frames
Codec ID : avc1
Codec ID/Info : Advanced Video Coding
Duration : 6h 26mn
Duration_FirstFrame : -33ms
Bit rate : 3 221 Kbps
Width : 1 920 pixels
Height : 1 080 pixels
Display aspect ratio : 16:9
Frame rate mode : Variable
Frame rate : 29.970 fps
Minimum frame rate : 29.970 fps
Maximum frame rate : 29.990 fps
Color space : YUV
Chroma subsampling : 4:2:0
Bit depth : 8 bits
Scan type : Progressive
Bits/(Pixel*Frame) : 0.052
Stream size : 8.69 GiB (96%)
Color primaries : BT.709
Transfer characteristics : BT.709
Matrix coefficients : BT.709
Color range : Limited

Audio
ID : 2
Format : AAC
Format/Info : Advanced Audio Codec
Format profile : LC
Codec ID : 40
Duration : 6h 26mn
Source duration : 6h 26mn
Bit rate mode : Constant
Bit rate : 126 Kbps
Channel(s) : 2 channels
Channel positions : Front: L R
Sampling rate : 44.1 KHz
Compression mode : Lossy
Stream size : 347 MiB (4%)
Source stream size : 347 MiB (4%)

pb.wtf



Скачать Uncharted 4: Путь вора через торрент https://pic1.kartinco.top/images/10/kj39f.jpg Скачать фильм Uncharted 4: Путь вора через торрент бесплантно в хорошем качестве Описание: Через три года после событий «Uncharted 3: Иллюзии Дрейка», Натан Дрейк как будто бы покинул мир охотников за сокровищами. Однако ... 8.7 10 21
Info! Золотая раздача, скачанное не засчитывается.
Торрент: Зарегистрирован [2016-05-15 18:12] · скачан: 158 раз
Статус: √ проверено
Размер: 9.06 GB
Как cкачать? Как скачать Uncharted 4: Путь вора через торрент | UTorrent

28-11-2019 20:33  

Отключить всю рекламу на сайте

15-05-2016 18:37 Uncharted 4: Путь вора Скачать торрент  

dev78 писал(а):

Ну вот дождались)) Ждем теперь на пс не таблеток на новые игры а игрофильмов))))

pb.wtf



15-05-2016 18:37 Uncharted 4: Путь вора Скачать торрент  

gnev78, dev78, мимо пройти трудно???? поможем....pb.wtf



15-05-2016 18:44 Uncharted 4: Путь вора Скачать торрент  

Завтра будет возможность будет и Квантовый разлом / Quantum Breakpb.wtf



15-05-2016 19:09 Uncharted 4: Путь вора Скачать торрент  

Haswell писал(а):

Завтра будет возможность будет и Квантовый разлом / Quantum Break

плюсану за квантум,смотрел,норм кинцо (там половина реальное кинцо кстать) ,анчарт не оченьpb.wtf



15-05-2016 19:11 Uncharted 4: Путь вора Скачать торрент  

Прошел в первый же день выхода. Отличная игра получилась. По поводу малого количества геймплея бред полный. Порой очень длинные катсцены,из за этого и складывается такой ощущение.pb.wtf



15-05-2016 19:41 Uncharted 4: Путь вора Скачать торрент  

а мне нравится,можно и к другим играм,ну а что играть нечего будем смотреть pb.wtf



16-05-2016 19:55 Uncharted 4: Путь вора Скачать торрент  

Нормуль!Игрофильм - крутая тема,подвис на это с игры Last of Us,очень понравилась а на пс не было,вот и смотрел прохождение в виде игрофильма!
Спасибо!забираю! pb.wtf



18-05-2016 20:31 Uncharted 4: Путь вора Скачать торрент  

Автор уже комментарии удалять начал за нормальный адекватный вопрос "зачем качать ЭТО если можно на ютубе посмотреть"?
66 дурачков уже скачали pb.wtf



19-05-2016 22:21 Uncharted 4: Путь вора Скачать торрент  

всем советую посмотреть не пожалеетеpb.wtf



    Дорогой пользователь! Огромная просьба, поблагодарите релизера, оцените раздачу и оставьте свои комментарий, если Вы скачали Uncharted 4: Путь вора через торрент бесплатно! Внесите свою лепту в развитие PiratBit!
    Комментировать посты могут только пользователи прошедшие не сложную регистрацию
    Показать сообщения:    

    Uncharted 4: Путь вора через торрент
    Скачать бесплатно Uncharted 4: Путь вора
    Uncharted 4: Путь вора скачать торрент
    Uncharted 4: Путь вора смотреть онлайн
    Cкачать фильм Uncharted 4: Путь вора бесплатно
    Uncharted 4: Путь вора скачать торрент в хорошем качестве
    Uncharted 4: Путь вора смотреть онлайн бесплатно в хорошем качестве


    Вы не можете начинать темы
    Вы не можете отвечать на сообщения
    Вы не можете редактировать свои сообщения
    Вы не можете удалять свои сообщения
    Вы не можете голосовать в опросах
    Вы не можете прикреплять файлы к сообщениям
    Вы можете скачивать файлы