Ссылка на приватное зеркало всего за 1$. Внимание количество ограничено!!!

iTunes

iTunes

iTunes

1

iTunes

iTunes

iTunes

iTunes

iTunes

30
pack

$ от Little Big

ВАЖНО

!!Акция!!

Alien_RageХит недели

RePack

Resident Evil 21

ИГРА 18+

pack

RePack

jed

!!Акция!!

Alien_Rage

RePack

fifa19

RePack

Assassins Creed: Odyssey

RePack

NEED FOR SPEED™ PAYBACK

4 сезон

9 сезон

Бесстыжие 9 сезон

Все сериалы

все сериалы на PB.wtf

RePack

FAR CRY 5
  

Боги Египта / Gods of Egypt (Алекс Пройас ) [2016, фэнтези, боевик, приключения , WEB-DL 1080p, Дубляж] iTunes pb.wtf

Боги Египта через торрент pb.wtf

Размер: 4.28 GB | Добавлен: 4 года 1 мес. назад | Торрент скачан:3612 раз
Скачать  

16-05-2016 19:51 Боги Египта Скачать торрент  

Боги Египта / Gods of Egypt

Год выпуска: 2016
Страна: США, Австралия
Жанр: фэнтези, боевик, приключения
Продолжительность: 02:06:50
Перевод: Дубляж - [Лицензия / iTunes]
Режиссер: Алекс Пройас
В ролях: Брентон Туэйтс (Bek), Джерард Батлер (Set), Николай Костер-Вальдау (Horus), Чедвик Боузман (Thoth), Элоди Юнг (Hathor), Кортни Итон (Zaya), Руфус Сьюэлл (Urshu), Джеффри Раш (Ra), Брайан Браун (Osiris), Рэйчел Блейк (Isis), Эмма Бут (Nephthys), Александр Инглэнд (Mnevis)
Описание:
Некогда мирное и процветающее египетское царство погружается в хаос: беспощадный бог тьмы Сет убивает своего брата Осириса и узурпирует трон. Вызов ему неожиданно бросает простой смертный, находчивый молодой вор. Чтобы вернуть к жизни свою прекрасную возлюбленную, ему приходится заручиться поддержкой могущественного и мстительного бога Гора. Лишь выдержав испытание на прочность и принеся в жертву все самое дорогое, им удастся противостоять Сету и его приспешникам в мире живых и мире мертвых.
Рейтинг:

Качество: WEB-DL 1080p
Формат: MKV
Видео: AVC, 1920x800 (2.40:1), 4350 kbps, 24 fps
Аудио: русский / AC3 / 5.1 / 48 kHz / 384 kbps / 16 bit | iTunes |
Навигация по главам: есть

Format : Matroska
Format version : Version 2
File size : 4.28 GiB
Duration : 2h 6mn
Overall bit rate : 4 831 Kbps
Movie name : Gods of Egypt (2016) - Release for HDCLUB
Encoded date : UTC 2016-05-16 18:19:39
Writing application : mkvmerge v3.4.0 ('Rapunzel') built on May 15 2010 09:38:20
Writing library : libebml v0.8.0 + libmatroska v0.9.0

Video
ID : 1
Format : AVC
Format/Info : Advanced Video Codec
Format profile : High@L4
Format settings, CABAC : Yes
Format settings, ReFrames : 5 frames
Codec ID : V_MPEG4/ISO/AVC
Duration : 2h 6mn
Bit rate : 4 350 Kbps
Width : 1 920 pixels
Height : 800 pixels
Display aspect ratio : 2.40:1
Frame rate mode : Constant
Frame rate : 24.000 fps
Color space : YUV
Chroma subsampling : 4:2:0
Bit depth : 8 bits
Scan type : Progressive
Bits/(Pixel*Frame) : 0.118
Stream size : 3.85 GiB (90%)
Title : Gods of Egypt (2016) - Release for HDCLUB
Language : English
Default : Yes
Forced : No
Color range : Limited
Color primaries : BT.709
Transfer characteristics : BT.709
Matrix coefficients : BT.709

Audio
ID : 2
Format : AC-3
Format/Info : Audio Coding 3
Mode extension : CM (complete main)
Format settings, Endianness : Big
Codec ID : A_AC3
Duration : 2h 6mn
Bit rate mode : Constant
Bit rate : 384 Kbps
Channel(s) : 6 channels
Channel positions : Front: L C R, Side: L R, LFE
Sampling rate : 48.0 KHz
Frame rate : 31.250 fps (1536 spf)
Compression mode : Lossy
Stream size : 348 MiB (8%)
Title : AC3 5.1 @ 384 kbps - DUB, iTunes
Language : Russian
Default : Yes
Forced : No

Menu
00:00:00.000 : en:1
00:05:48.000 : en:2
00:11:38.916 : en:3
00:17:54.874 : en:4
00:23:43.540 : en:5
00:29:26.373 : en:6
00:35:03.498 : en:7
00:41:23.039 : en:8
00:46:25.539 : en:9
00:53:57.872 : en:10
00:59:23.080 : en:11
01:06:10.121 : en:12
01:13:11.787 : en:13
01:19:48.662 : en:14
01:28:10.662 : en:15
01:36:03.995 : en:16
01:41:55.536 : en:17
01:48:43.452 : en:18
01:54:08.785 : en:19
pb.wtf



Скачать Боги Египта через торрент http://i78.fastpic.ru/big/2016/0517/63/1dfdbeae0acdd0034c2082f46573db63.png Скачать фильм Боги Египта через торрент бесплантно в хорошем качестве Описание: Некогда мирное и процветающее египетское царство погружается в хаос: беспощадный бог тьмы Сет убивает своего брата Осириса и ... 9.7 10 94
Info! Золотая раздача, скачанное не засчитывается.
Торрент: Зарегистрирован [2016-05-16 19:51] · скачан: 3 612 раз
Статус: √ проверено
Размер: 4.28 GB
Как cкачать? Как скачать Боги Египта через торрент | qTorrent

% Раздел Тема Автор DL S | L
# 3D Фильмы [ 18.15 GB ] Боги Египта / Gods of Egypt [2016 BDRip 1080p HOU / 3D-Video / ] Ворон Скачать
1 | 0
Фильмы (WEB-DL 720p, 1080p) [ 3.88 GB ] Боги Египта / Gods of Egypt [2016 WEB DL 720p] $-DRON-$ Скачать
1 | 0
Фильмы 2016 [DVDrip, WEB-DLRip, HDrip] (DUB, MVO) [ 2.19 GB ] Боги Египта / Gods of Egypt [2016 WEB-DLRip ""] coc900 Скачать
1 | 0
Фильмы 2016 [DVDrip, WEB-DLRip, HDrip] (DUB, MVO) [ 748 MB ] Боги Египта / Gods of Egypt [2016 WEB-DLRip ] ] Sherif Скачать
1 | 0
Фильмы 2016 [DVDrip, WEB-DLRip, HDrip] (DUB, MVO) [ 2.05 GB ] Боги Египта / Gods of Egypt [2016 WEB-DLRip ] Ворон Скачать
1 | 0

28-11-2019 20:33  

Отключить всю рекламу на сайте

16-05-2016 20:07 Боги Египта Скачать торрент  

Наш канал на ЮТУБЕ подписывайтесь пираты)=
https://www.youtube.com/channel/UCVOgohOugtNuCM9aXr9KVeg

pb.wtf





Последний раз редактировалось: Ворон (2016-05-19 20:03), всего редактировалось 3 раз(а)

16-05-2016 20:14 Боги Египта Скачать торрент  

Подарочек на днюху!pb.wtf



16-05-2016 20:47 Боги Египта Скачать торрент  

Спасибо, посмотрим.pb.wtf



16-05-2016 21:14 Боги Египта Скачать торрент  

zra писал(а):

Подарочек на днюху!

pb.wtf



16-05-2016 23:29 Боги Египта Скачать торрент  

Фильм одноразовыйpb.wtf



17-05-2016 01:45 Боги Египта Скачать торрент  

Фильм класс мне понравился.pb.wtf



17-05-2016 11:43 Боги Египта Скачать торрент  

Интересный фильм. картинку бы поярче, а в остальном фильм хорош.pb.wtf



17-05-2016 13:52 Боги Египта Скачать торрент  

Очередная малобюджетка , CGI графон в фильме шлак , как и комбинированные сёмки которые наверное делали на VHS магнитофоне.pb.wtf



17-05-2016 17:36 Боги Египта Скачать торрент  

А мне понравился.pb.wtf



17-05-2016 17:57 Боги Египта Скачать торрент  

Подскажите в 3d когда выйдет...?pb.wtf



17-05-2016 19:15 Боги Египта Скачать торрент  

Хорошо не пошел на фильм в кино. 5/10pb.wtf



17-05-2016 19:41 Боги Египта Скачать торрент  

Спасибо конечно, но ни кто не заметил что рип подтормаживает?
Аа, нет извиняюсь, это моя видюха что то зехерит ))pb.wtf





Последний раз редактировалось: w.a.s.p. (2016-05-18 12:13), всего редактировалось 1 раз

18-05-2016 10:30 Боги Египта Скачать торрент  

PIXELINTERLAN писал(а):

Очередная малобюджетка , CGI графон в фильме шлак , как и комбинированные сёмки которые наверное делали на VHS магнитофоне.

pb.wtf



18-05-2016 14:39 Боги Египта Скачать торрент  

Звук плохой. Как с унитазаpb.wtf



    Дорогой пользователь! Огромная просьба, поблагодарите релизера, оцените раздачу и оставьте свои комментарий, если Вы скачали Боги Египта через торрент бесплатно! Внесите свою лепту в развитие PiratBit!
    Комментировать посты могут только пользователи прошедшие не сложную регистрацию
    Показать сообщения:    

    Боги Египта через торрент
    Скачать бесплатно Боги Египта
    Боги Египта скачать торрент
    Боги Египта смотреть онлайн
    Cкачать фильм Боги Египта бесплатно
    Боги Египта скачать торрент в хорошем качестве
    Боги Египта смотреть онлайн бесплатно в хорошем качестве


    Вы не можете начинать темы
    Вы не можете отвечать на сообщения
    Вы не можете редактировать свои сообщения
    Вы не можете удалять свои сообщения
    Вы не можете голосовать в опросах
    Вы не можете прикреплять файлы к сообщениям
    Вы можете скачивать файлы