Ссылка на приватное зеркало нашего сайта всего за 1$. Внимание количество ограничено!!!

2 сезон

iTunes

1 сезон

1

iTunes

iTunes

iTunes

1 сезон

RePack

30

ИГРА 18+

pack

ВАЖНО

!!Акция!!

Alien_RageХит недели

RePack

MK11
pack

Забери бонус

RePack

jed

!!Акция!!

Alien_Rage

RePack

fifa19

RePack

Assassins Creed: Odyssey

RePack

NEED FOR SPEED™ PAYBACK

4 сезон

9 сезон

Бесстыжие 9 сезон

Все сериалы

все сериалы на PB.wtf

RePack

FAR CRY 5
  

Киллер Джо / Killer Joe (Unrated) (Уильям Фридкин / William Friedkin) [2011, триллер, драма, криминал, BDRip 720p от _denis_100 / NNNB] DUB, DVO, AVO pb.wtf

Киллер Джо через торрент pb.wtf

Размер: 4.83 GB | Добавлен: 4 года 5 мес. назад | Торрент скачан:119 раз
Скачать  

17-05-2016 08:09 Киллер Джо Скачать торрент  

Киллер Джо / Killer Joe
«Убийство ещё не было таким приятным на вкус»


Год выпуска: 2011
Страна: США
Жанр: триллер, драма, криминал
Продолжительность: 01:42:59
Перевод: Дублированный, Любительский двухголосый, Авторский одноголосый
Субтитры: русские (Mokum), русские (Jbravo), русские (ak79), английские (full), английские (SDH)
Режиссер: Уильям Фридкин
В ролях: Мэттью МакКонахи , Эмиль Хирш , Джуно Темпл , Томас Хейден Чёрч , Джина Гершон , Марк Маколей , Грэйлен Брайант Бэнкс , Кэрол Саттон , Дэнни Эппер , Джефф Галпин , Скотт А. Мартин , Грегори С. Башо
Описание:
Мелкий драгдиллер Крис замышляет убийство матери, чтобы получить деньги по страховке, и по этому случаю он при согласии отца, сестры и мачехи нанимает киллера по имени Джо Купер.

R - Лицам до 17 лет обязательно присутствие взрослого
Качество: BDRip 720p
Контейнер (Расширение): MKV
Видео: 1280x692, 4348 Кбит/сек, 23,976 кадр/сек, 0,205 Бит/[Пиксели*Кадры]
Аудио №1: русский / AC3 / 5.1 / 48 kHz / 448 kbps / 16 bit |Дублированный|
Аудио №2: русский / AC3 / 5.1 / 48 kHz / 640 kbps / 16 bit |Авторский одноголосый, Юрий Живов|
Аудио №3: русский / AC3 / 5.1 / 48 kHz / 640 kbps / 16 bit |Любительский двухголосый, ViruseProject|
Аудио №4: английский / AC3 / 5.1 / 48 kHz / 640 kbps / 16 bit
Навигация по главам(Чаптеры): естьАвтор рипа: Сообщество:
Авторский перевод Юрия Живого отдельно:

Код:

Format                                   : Matroska
Format version                           : Version 2
File size                                : 4.83 GiB
Duration                                 : 1h 42mn
Overall bit rate                         : 6 717 Kbps
Movie name                               : Killer Joe.(2011).BDRip.720p.[denis100].Unrated
Encoded date                             : UTC 2016-05-17 07:19:13
Writing application                      : mkvmerge v5.8.0 ('No Sleep / Pillow') built on Sep  2 2012 15:37:04
Writing library                          : libebml v1.2.3 + libmatroska v1.3.0

Video
ID                                       : 1
Format                                   : AVC
Format/Info                              : Advanced Video Codec
Format profile                           : High@L4.1
Format settings, CABAC                   : Yes
Format settings, ReFrames                : 9 frames
Codec ID                                 : V_MPEG4/ISO/AVC
Duration                                 : 1h 42mn
Bit rate                                 : 4 348 Kbps
Width                                    : 1 280 pixels
Height                                   : 692 pixels
Display aspect ratio                     : 1.850
Frame rate                               : 23.976 fps
Color space                              : YUV
Chroma subsampling                       : 4:2:0
Bit depth                                : 8 bits
Scan type                                : Progressive
Bits/(Pixel*Frame)                       : 0.205
Stream size                              : 3.03 GiB (63%)
Title                                    : Killer Joe.(2011).BDRip.720p.[denis100].Unrated
Writing library                          : x264 core 148 r2692 64f4e24
Encoding settings                        : cabac=1 / ref=9 / deblock=1:-3:-3 / analyse=0x3:0x133 / me=umh / subme=11 / psy=1 / psy_rd=1.00:0.00 / mixed_ref=1 / me_range=32 / chroma_me=1 / trellis=2 / 8x8dct=1 / cqm=0 / deadzone=21,11 / fast_pskip=0 / chroma_qp_offset=-2 / threads=6 / lookahead_threads=1 / sliced_threads=0 / nr=0 / decimate=1 / interlaced=0 / bluray_compat=0 / constrained_intra=0 / bframes=10 / b_pyramid=2 / b_adapt=2 / b_bias=0 / direct=3 / weightb=1 / open_gop=0 / weightp=2 / keyint=240 / keyint_min=23 / scenecut=40 / intra_refresh=0 / rc=2pass / mbtree=0 / bitrate=4348 / ratetol=1.0 / qcomp=0.60 / qpmin=0 / qpmax=69 / qpstep=4 / cplxblur=20.0 / qblur=0.5 / ip_ratio=1.40 / pb_ratio=1.30 / aq=1:1.00
Language                                 : English
Default                                  : Yes
Forced                                   : No

Audio #1
ID                                       : 2
Format                                   : AC-3
Format/Info                              : Audio Coding 3
Mode extension                           : CM (complete main)
Codec ID                                 : A_AC3
Duration                                 : 1h 42mn
Bit rate mode                            : Constant
Bit rate                                 : 448 Kbps
Channel(s)                               : 6 channels
Channel positions                        : Front: L C R, Side: L R, LFE
Sampling rate                            : 48.0 KHz
Bit depth                                : 16 bits
Compression mode                         : Lossy
Stream size                              : 330 MiB (7%)
Title                                    : Дубляж
Language                                 : Russian
Default                                  : Yes
Forced                                   : No

Audio #2
ID                                       : 3
Format                                   : AC-3
Format/Info                              : Audio Coding 3
Mode extension                           : CM (complete main)
Codec ID                                 : A_AC3
Duration                                 : 1h 42mn
Bit rate mode                            : Constant
Bit rate                                 : 640 Kbps
Channel(s)                               : 6 channels
Channel positions                        : Front: L C R, Side: L R, LFE
Sampling rate                            : 48.0 KHz
Bit depth                                : 16 bits
Compression mode                         : Lossy
Stream size                              : 471 MiB (10%)
Title                                    : AVO, Живов
Language                                 : Russian
Default                                  : No
Forced                                   : No

Audio #3
ID                                       : 4
Format                                   : AC-3
Format/Info                              : Audio Coding 3
Mode extension                           : CM (complete main)
Codec ID                                 : A_AC3
Duration                                 : 1h 42mn
Bit rate mode                            : Constant
Bit rate                                 : 640 Kbps
Channel(s)                               : 6 channels
Channel positions                        : Front: L C R, Side: L R, LFE
Sampling rate                            : 48.0 KHz
Bit depth                                : 16 bits
Compression mode                         : Lossy
Stream size                              : 471 MiB (10%)
Title                                    : DVO (ViruseProject)
Language                                 : Russian
Default                                  : No
Forced                                   : No

Audio #4
ID                                       : 5
Format                                   : AC-3
Format/Info                              : Audio Coding 3
Mode extension                           : CM (complete main)
Codec ID                                 : A_AC3
Duration                                 : 1h 42mn
Bit rate mode                            : Constant
Bit rate                                 : 640 Kbps
Channel(s)                               : 6 channels
Channel positions                        : Front: L C R, Side: L R, LFE
Sampling rate                            : 48.0 KHz
Bit depth                                : 16 bits
Compression mode                         : Lossy
Stream size                              : 471 MiB (10%)
Language                                 : English
Default                                  : No
Forced                                   : No

Text #1
ID                                       : 6
Format                                   : UTF-8
Codec ID                                 : S_TEXT/UTF8
Codec ID/Info                            : UTF-8 Plain Text
Title                                    : Mokum
Language                                 : Russian
Default                                  : No
Forced                                   : No

Text #2
ID                                       : 7
Format                                   : UTF-8
Codec ID                                 : S_TEXT/UTF8
Codec ID/Info                            : UTF-8 Plain Text
Title                                    : Jbravo
Language                                 : Russian
Default                                  : No
Forced                                   : No

Text #3
ID                                       : 8
Format                                   : UTF-8
Codec ID                                 : S_TEXT/UTF8
Codec ID/Info                            : UTF-8 Plain Text
Title                                    : ak79
Language                                 : Russian
Default                                  : No
Forced                                   : No

Text #4
ID                                       : 9
Format                                   : UTF-8
Codec ID                                 : S_TEXT/UTF8
Codec ID/Info                            : UTF-8 Plain Text
Title                                    : full
Language                                 : English
Default                                  : No
Forced                                   : No

Text #5
ID                                       : 10
Format                                   : UTF-8
Codec ID                                 : S_TEXT/UTF8
Codec ID/Info                            : UTF-8 Plain Text
Title                                    : SDH
Language                                 : English
Default                                  : No
Forced                                   : No

Menu
00:00:00.000                             : :Chapter 01
00:06:01.361                             : :Chapter 02
00:13:19.799                             : :Chapter 03
00:20:49.039                             : :Chapter 04
00:26:16.157                             : :Chapter 05
00:33:22.083                             : :Chapter 06
00:38:37.815                             : :Chapter 07
00:46:41.465                             : :Chapter 08
00:52:16.007                             : :Chapter 09
00:56:12.160                             : :Chapter 10
01:07:01.726                             : :Chapter 11
01:11:46.051                             : :Chapter 12
01:18:13.063                             : :Chapter 13
01:29:14.849                             : :Chapter 14
01:31:46.375                             : :Chapter 15
01:34:47.431                             : :Chapter 16

x264 [info]: frame I:970 Avg QP:13.21 size:147513
x264 [info]: frame P:33942 Avg QP:16.08 size: 43567
x264 [info]: frame B:113239 Avg QP:18.00 size: 15319
pb.wtf



Скачать Киллер Джо через торрент http://i79.fastpic.ru/big/2016/0517/57/58f1c044770e934fd5ec6c16b7cdad57.png Скачать фильм Киллер Джо через торрент бесплантно в хорошем качестве Описание:Мелкий драгдиллер Крис замышляет убийство матери, чтобы получить деньги по страховке, и по этому случаю он при согласии отца, ... 10 10 6
Info! Золотая раздача, скачанное не засчитывается.
Торрент: Зарегистрирован [2016-05-17 08:09] · скачан: 119 раз
Статус: √ проверено
Размер: 4.83 GB
Как cкачать? Как скачать Киллер Джо через торрент | qTorrent

% Раздел Тема Автор DL S | L
Фильмы [HD 720p, 1080p] (Хороший звук DUB, MVO) [ 8.22 GB ] Киллер Джо / Killer Joe [2011 BDRip 1080p от _denis_100 / NNNB] DUB DVO AVO _denis_100 Скачать
1 | 0

28-11-2019 20:33  

Отключить всю рекламу на сайте

17-05-2016 08:33 Киллер Джо Скачать торрент  

кто нить напишет? фильм хороший?pb.wtf



18-05-2016 03:17 Киллер Джо Скачать торрент  

Bink писал(а):

кто нить напишет? фильм хороший?

О да!!! pb.wtf



19-05-2016 16:57 Киллер Джо Скачать торрент  

bober100 писал(а):

Bink писал(а):

кто нить напишет? фильм хороший?

О да!!!

да я уж глянул... Семейка Шизоидов я бы так назвал)))pb.wtf



19-05-2016 17:39 Киллер Джо Скачать торрент  

Bink, попал в точку)pb.wtf



19-05-2016 19:20 Киллер Джо Скачать торрент  

хороший!!!!!!!!!!!!!!pb.wtf



    Дорогой пользователь! Огромная просьба, поблагодарите релизера, оцените раздачу и оставьте свои комментарий, если Вы скачали Киллер Джо через торрент бесплатно! Внесите свою лепту в развитие PiratBit!
    Комментировать посты могут только пользователи прошедшие не сложную регистрацию
    Показать сообщения:    

    Киллер Джо через торрент
    Скачать бесплатно Киллер Джо
    Киллер Джо скачать торрент
    Киллер Джо смотреть онлайн
    Cкачать фильм Киллер Джо бесплатно
    Киллер Джо скачать торрент в хорошем качестве
    Киллер Джо смотреть онлайн бесплатно в хорошем качестве


    Вы не можете начинать темы
    Вы не можете отвечать на сообщения
    Вы не можете редактировать свои сообщения
    Вы не можете удалять свои сообщения
    Вы не можете голосовать в опросах
    Вы не можете прикреплять файлы к сообщениям
    Вы можете скачивать файлы