Ссылка на приватное зеркало нашего сайта всего за 1$. Внимание количество ограничено!!!

2 сезон

iTunes

1 сезон

1

2 сезон

2 сезон

iTunes

1 сезон

RePack

30

Новинка

ВАЖНО

ИГРА 18+

pack

RePack

MK11
pack

Забери бонус

RePack

jed

!!Акция!!

Alien_Rage

RePack

fifa19

RePack

Assassins Creed: Odyssey

RePack

NEED FOR SPEED™ PAYBACK

4 сезон

9 сезон

Бесстыжие 9 сезон

Все сериалы

все сериалы на PB.wtf

RePack

FAR CRY 5
  

Страшные сказки / Грошовые ужасы / Бульварные ужасы / Penny Dreadful (сезон 3, серия 1-3 из 9) (Дэймон Томас, Хуан Антонио Байона, Коки Гидройч) [2016, ужасы, WEB-DLRip 720p] [AlexFilm] pb.wtf

Страшные сказки через торрент pb.wtf

Размер: 4.47 GB | Добавлен: 4 года 6 мес. назад | Торрент скачан:19 раз
Скачать  

17-05-2016 09:26 Страшные сказки Скачать торрент  


Страшные сказки / Грошовые ужасы / Бульварные ужасы / Penny Dreadful
««There is some thing within us all»»

ИНФОРМАЦИЯ:
Год выпуска: 2016
Страна: США, Ирландия, Великобритания
Жанр: ужасы, фэнтези, драма
Продолжительность: ~00:59:00 серия
Перевод: Профессиональный (многоголосый)- AlexFilm
Режиссер: Джеймс Хоуз, Дэймон Томас, Брайан Кирк

В Ролях:


Ева Грин (Vanessa Ives), Тимоти Далтон (Sir Malcolm Murray), Гарри Тредэвэй (Dr. Victor Frankenstein), Джош Хартнетт (Ethan Chandler), Рив Карни (Dorian Gray), Дэнни Сапани (Sembene), Билли Пайпер (Lily), Рори Киннер (John Clare), Оливия Ллевелин (Mina Harker), Алан Армстронг (Vincent Brand), Ханна Тойнтон (Maud Gunneson), Саймон Расселл Бил (Ferdinand Lyle)

Описание:
Сериал возвращает нас ко всеми любимым героям, монстрам и злодеям. В викторианском Лондоне, где происходит действие сериала, никогда не было спокойно и безопасно. Особенно теперь, когда литературные персонажи ожили и наводят ужас на город.
Неминуема встреча с вечно молодым Дорианом Греем, героем одноименного романа Оскара Уайльда, доктором Франкенштейном и его зомби-монстром, хладнокровным графом Дракулой, охотником на вампиров и оборотней Ван Хельсингом и множеством других уникальных персонажей.

  • Мировая премьера:9 марта 2014

    ТЕХ.ДАННЫЕ:
    Качество: WEBRip 720p
    Формат: MKV
    Видео: AVC, 1280x720 (16:9), 2708 kbps, 23,976 fps, 0,123 bpp
    Аудио №1: русский / AC3 / 5.1 / 48 kHz / 384 kbps / 16 bit ||
    Аудио №2: английский / AC3 / 5.1 / 48 kHz / 384 kbps / 16 bit

    Код:

    AlexFilm
    Перевод: Константин Кривоногов
    Монтаж и сведение звука: Михаил Шорыгин
    Роли озвучивали: Татьяна Манетина. Ирина Воронова, Владимир Курдов, Михаил Суслов, Рустам Шайхиев, Владислав Данилов


    Раздача ведётся путём добавления новых серий
    Внимание! Раздача ведётся путём добавления новых серий; при каждом добавлении создаётся новый торрент. Чтобы начать докачку новой серии, пользователям необходимо сделать следующее:
    (1) остановить скачивание,
    (2) удалить старый торрент у себя из клиента (старые серии удалять не надо),
    (3) скачать новый торрент и запустить его у себя в клиенте вместо старого, при этом указать клиенту путь в старую папку куда и должно происходить скачивание новых серий.
    Ваш клиент при этом должен произвести хеширование (проверку) старой папки (если не производит сам - помогите ему сделать это), и будет докачивать только те серии которых у вас ещё нет. Старые серии при этом не удаляются, а продолжают раздаваться!
    Eсли вы уже удалили старые серии, то предотвратить повторную закачку старых серий можно, отжав галочку в соответствующих местах при запуске нового торрента. По возможности, желательно не удалять старые серии как можно дольше чтобы релизёр не столько продолжал раздавать старые серии, а смог сконцентрироваться на новых.
    Закрыть
    General
    Unique ID : 221755501851118883241316399108982969831 (0xA6D48E5ED924948EBC5C9EAC573215E7)
    Complete name : E:\Раздачи\Penny Dreadful - Season 3 (AlexFilm) WEBRip 720p\Penny.Dreadful.s03e02.WEBRip.720p.Rus.Eng.AlexFilm.mkv
    Format : Matroska
    Format version : Version 4 / Version 2
    File size : 1.35 GiB
    Duration : 54mn 36s
    Overall bit rate : 3 548 Kbps
    Movie name : Penny Dreadful 3x02 @ AlexFilm
    Encoded date : UTC 2016-05-11 08:07:49
    Writing application : mkvmerge v7.1.0 ('Good Love') 64bit built on Jul 27 2014 13:06:55
    Writing library : libebml v1.3.0 + libmatroska v1.4.1

    Video
    ID : 1
    Format : AVC
    Format/Info : Advanced Video Codec
    Format profile : High@L4.1
    Format settings, CABAC : Yes
    Format settings, ReFrames : 9 frames
    Codec ID : V_MPEG4/ISO/AVC
    Duration : 54mn 36s
    Bit rate : 2 709 Kbps
    Width : 1 280 pixels
    Height : 720 pixels
    Display aspect ratio : 16:9
    Frame rate : 23.976 fps
    Color space : YUV
    Chroma subsampling : 4:2:0
    Bit depth : 8 bits
    Scan type : Progressive
    Bits/(Pixel*Frame) : 0.123
    Stream size : 1.03 GiB (76%)
    Writing library : x264 core 144 r2525 40bb568
    Encoding settings : cabac=1 / ref=9 / deblock=1:-3:-3 / analyse=0x3:0x133 / me=umh / subme=10 / psy=1 / psy_rd=1.00:0.00 / mixed_ref=1 / me_range=48 / chroma_me=1 / trellis=2 / 8x8dct=1 / cqm=0 / deadzone=21,11 / fast_pskip=1 / chroma_qp_offset=-2 / threads=12 / lookahead_threads=2 / sliced_threads=0 / nr=0 / decimate=1 / interlaced=0 / bluray_compat=0 / constrained_intra=0 / bframes=8 / b_pyramid=2 / b_adapt=2 / b_bias=0 / direct=3 / weightb=1 / open_gop=0 / weightp=2 / keyint=250 / keyint_min=23 / scenecut=40 / intra_refresh=0 / rc=crf / mbtree=0 / crf=17.0 / qcomp=0.60 / qpmin=0 / qpmax=69 / qpstep=4 / ip_ratio=1.30 / pb_ratio=1.20 / aq=3:0.80
    Language : English
    Default : Yes
    Forced : No

    Audio #1
    ID : 2
    Format : AC-3
    Format/Info : Audio Coding 3
    Mode extension : CM (complete main)
    Codec ID : A_AC3
    Duration : 54mn 36s
    Bit rate mode : Constant
    Bit rate : 384 Kbps
    Channel(s) : 6 channels
    Channel positions : Front: L C R, Side: L R, LFE
    Sampling rate : 48.0 KHz
    Bit depth : 16 bits
    Compression mode : Lossy
    Stream size : 150 MiB (11%)
    Title : DD5.1 AlexFilm
    Language : Russian
    Default : Yes
    Forced : No

    Audio #2
    ID : 3
    Format : AC-3
    Format/Info : Audio Coding 3
    Mode extension : CM (complete main)
    Codec ID : A_AC3
    Duration : 54mn 36s
    Bit rate mode : Constant
    Bit rate : 384 Kbps
    Channel(s) : 6 channels
    Channel positions : Front: L C R, Side: L R, LFE
    Sampling rate : 48.0 KHz
    Bit depth : 16 bits
    Compression mode : Lossy
    Stream size : 150 MiB (11%)
    Title : DD5.1 Original
    Language : English
    Default : No
    Forced : No
    Скриншоты:
    скриншот   скриншот   скриншот  

    © Оформление by .::Ворон::.
    pb.wtf



  • Скачать Страшные сказки через торрент http://pic.kartinco.top/images/6/ordi9.jpg Скачать фильм Страшные сказки через торрент бесплантно в хорошем качестве Описание: Сериал возвращает нас ко всеми любимым героям, монстрам и злодеям. В викторианском Лондоне, где происходит действие сериала, ... 10 10 2
    Торрент: Зарегистрирован [2016-05-17 09:26] · скачан: 19 раз
    Статус: √ проверено
    Размер: 4.47 GB
    Как cкачать? Как скачать Страшные сказки через торрент | qTorrent

    % Раздел Тема Автор DL S | L
    Зарубежные сериалы [ 17.04 GB ] Страшные сказки / Бульварные / Грошовые / Penny Dreadful / Сезон: 1 / Серии: 1-8 из 8 [2014 HDTVRip 720p] MVO [NewStudio] + Original Messa-fan Скачать
    1 | 1
    Зарубежные сериалы [ 16.33 GB ] Страшные сказки / Грошовые / Бульварные / Penny Dreadful / Сезон: 1 / Серии: 1-8 из 8 [2014 WEBRip 720p] MVO [TVShows] bober100 Скачать
    1 | 0
    Зарубежные сериалы [ 24.32 GB ] Страшные сказки / Грошовые / Бульварные / Penny Dreadful / Сезон: 1 / Серии: 1-8 из 8 [2014 WEBRip 1080p] MVO [TVShows] bober100 Скачать
    1 | 0
    Зарубежные сериалы [ 5.59 GB ] Страшные сказки / Грошовые / Бульварные / Penny Dreadful / Сезон 1 / Серии 1-8 из 8 [2014 HDTVRip] MVO [Амедиа] bober100 Скачать
    1 | 0

    28-11-2019 20:33  

    Отключить всю рекламу на сайте

      Дорогой пользователь! Огромная просьба, поблагодарите релизера, оцените раздачу и оставьте свои комментарий, если Вы скачали Страшные сказки через торрент бесплатно! Внесите свою лепту в развитие PiratBit!
      Комментировать посты могут только пользователи прошедшие не сложную регистрацию
      Показать сообщения:    

      Страшные сказки через торрент
      Скачать бесплатно Страшные сказки
      Страшные сказки скачать торрент
      Страшные сказки смотреть онлайн
      Cкачать фильм Страшные сказки бесплатно
      Страшные сказки скачать торрент в хорошем качестве
      Страшные сказки смотреть онлайн бесплатно в хорошем качестве


      Вы не можете начинать темы
      Вы не можете отвечать на сообщения
      Вы не можете редактировать свои сообщения
      Вы не можете удалять свои сообщения
      Вы не можете голосовать в опросах
      Вы не можете прикреплять файлы к сообщениям
      Вы можете скачивать файлы