Ссылка на приватное зеркало нашего сайта всего за 1$. Внимание количество ограничено!!!

2 сезон

iTunes

1 сезон

1

iTunes

iTunes

iTunes

1 сезон

RePack

30

ИГРА 18+

pack

ВАЖНО

!!Акция!!

Alien_RageХит недели

RePack

MK11
pack

Забери бонус

RePack

jed

!!Акция!!

Alien_Rage

RePack

fifa19

RePack

Assassins Creed: Odyssey

RePack

NEED FOR SPEED™ PAYBACK

4 сезон

9 сезон

Бесстыжие 9 сезон

Все сериалы

все сериалы на PB.wtf

RePack

FAR CRY 5
  

Индокитай / Indochine (Режис Варнье) [1992, драма, мелодрама, BDRip 720p by msltel] 2 x MVO, AVO pb.wtf

Индокитай через торрент pb.wtf

Размер: 7.51 GB | Добавлен: 4 года 5 мес. назад | Торрент скачан:22 раза
Скачать  

17-05-2016 10:21 Индокитай Скачать торрент  

Название: Индокитай
Оригинальное название: Indochine
Год выпуска: 1992
Страна: Франция, Вьетнам
Жанр: драма, мелодрама
Продолжительность: 02:37:54
Перевод: профессиональный многоголосый, авторский

Режиссёр: Режис Варнье

В ролях: Катрин Денёв, Венсан Перес, Лин Дэн Пэм, Жан Янн, Доминик Блан, Анри Марто, Карло Брандт, Жерар Лартиго, Юбер Сен-Макари, Анджей Северин, Мэй Чау, Ален Фромаже, Чу Хунг, Жан-Батист Хюинь, Тибо де Монталембер, Эрик Нгуен, Чинь Чинь, Тиен Тхо, Нгуйен Лан Хунг, Нгуен Нху, Лам Бинь, Тат Бинь, Нгуен Хай, Нго Хоа, Ба Хоанг, М. Лэп, Анна Лим, Труонг Тху, Жан де Трегомэйн, Данг Си Ван, Хай Йен

Описание: Элиана, богатая владелица плантации каучука, знакомится с недавно приехавшим морским офицером и влюбляется в него вопреки своей воле. Её несовершеннолетняя воспитанница Камилла тоже влюбляется в красавца-офицера, когда тот спасает её из рук террориста. Его вынуждают уехать на далёкий форпост на севере, но упрямая девчонка сбегает из дома и отправляется вслед за ним, открывая для себя по пути, что в стране происходит много бед и несчастий...



Качество: BDRip 720p Сравнение с исходником
Формат: MKV
Видео: MPEG-4 AVC, 5205 Кбит/с, 1280x690, 24 кадра/с
Аудио 1: русский, AC3, 448 kbps, 6 ch, 48 kHz [профессиональный многоголосый, CP-Digital]
Аудио 2: русский, AC3, 384 kbps, 6 ch, 48 kHz [профессиональный многоголосый, Карусель]
Аудио 3: русский, AC3, 384 kbps, 6 ch, 48 kHz [авторский, Юрий Живов]
Аудио 4: французский, AC3, 384 kbps, 6 ch, 48 kHz [оригинал]
Субтитры 1: русские
Субтитры 2: английские
Общее
Уникальный идентификатор : 206944086696421526604204327799255996325 (0x9BAFFB38FBCCD2DCBA7D504D661417A5)
Полное имя : D:\Video\Индокитай.1992.BDRip.720p.mkv
Формат : Matroska
Версия формата : Version 4 / Version 2
Размер файла : 7,51 Гбайт
Продолжительность : 2 ч. 37 м.
Общий поток : 6808 Кбит/сек
Дата кодирования : UTC 2016-05-15 09:45:05
Программа кодирования : mkvmerge v8.2.0 ('World of Adventure') 64bit
Библиотека кодирования : libebml v1.3.1 + libmatroska v1.4.2

Видео
Идентификатор : 1
Формат : AVC
Формат/Информация : Advanced Video Codec
Профиль формата : High@L4.1
Параметр CABAC формата : Да
Параметр ReFrames формата : 9 кадров
Идентификатор кодека : V_MPEG4/ISO/AVC
Продолжительность : 2 ч. 37 м.
Битрейт : 5205 Кбит/сек
Ширина : 1280 пикселей
Высота : 690 пикселей
Соотношение сторон : 1,85:1
Режим частоты кадров : Постоянный
Частота кадров : 24,000 кадра/сек
Цветовое пространство : YUV
Субдискретизация насыщенности : 4:2:0
Битовая глубина : 8 бит
Тип развёртки : Прогрессивная
Бит/(Пиксели*Кадры) : 0.246
Размер потока : 5,74 Гбайт (76%)
Библиотека кодирования : x264 core 146 r2538 121396c
Настройки программы : cabac=1 / ref=9 / deblock=1:-3:-3 / analyse=0x3:0x113 / me=umh / subme=10 / psy=1 / psy_rd=1.00:0.15 / mixed_ref=1 / me_range=32 / chroma_me=1 / trellis=2 / 8x8dct=1 / cqm=0 / deadzone=21,11 / fast_pskip=1 / chroma_qp_offset=-3 / threads=6 / lookahead_threads=1 / sliced_threads=0 / nr=0 / decimate=1 / interlaced=0 / bluray_compat=0 / constrained_intra=0 / bframes=9 / b_pyramid=2 / b_adapt=2 / b_bias=0 / direct=1 / weightb=1 / open_gop=0 / weightp=2 / keyint=230 / keyint_min=23 / scenecut=40 / intra_refresh=0 / rc_lookahead=40 / rc=crf / mbtree=0 / crf=20.0 / qcomp=0.60 / qpmin=0 / qpmax=69 / qpstep=4 / vbv_maxrate=40000 / vbv_bufsize=50000 / crf_max=0.0 / nal_hrd=none / filler=0 / ip_ratio=1.40 / pb_ratio=1.30 / aq=1:1.00
Язык : French
Default : Да
Forced : Нет

Аудио #1
Идентификатор : 2
Формат : AC-3
Формат/Информация : Audio Coding 3
Расширение режима : CM (complete main)
Параметр Endianness формата : Big
Идентификатор кодека : A_AC3
Продолжительность : 2 ч. 37 м.
Вид битрейта : Постоянный
Битрейт : 448 Кбит/сек
Каналы : 6 каналов
Расположение каналов : Front: L C R, Side: L R, LFE
Частота : 48,0 КГц
Частота кадров : 31,250 кадров/сек (1536 spf)
Метод сжатия : С потерями
Размер потока : 506 Мбайт (7%)
Заголовок : MVO (CP-Digital)
Язык : Russian
Default : Да
Forced : Нет

Аудио #2
Идентификатор : 3
Формат : AC-3
Формат/Информация : Audio Coding 3
Расширение режима : CM (complete main)
Параметр Endianness формата : Big
Идентификатор кодека : A_AC3
Продолжительность : 2 ч. 37 м.
Вид битрейта : Постоянный
Битрейт : 384 Кбит/сек
Каналы : 6 каналов
Расположение каналов : Front: L C R, Side: L R, LFE
Частота : 48,0 КГц
Частота кадров : 31,250 кадров/сек (1536 spf)
Метод сжатия : С потерями
Размер потока : 434 Мбайт (6%)
Заголовок : MVO (Карусель)
Язык : Russian
Default : Нет
Forced : Нет

Аудио #3
Идентификатор : 4
Формат : AC-3
Формат/Информация : Audio Coding 3
Расширение режима : CM (complete main)
Параметр Endianness формата : Big
Идентификатор кодека : A_AC3
Продолжительность : 2 ч. 37 м.
Вид битрейта : Постоянный
Битрейт : 384 Кбит/сек
Каналы : 6 каналов
Расположение каналов : Front: L C R, Side: L R, LFE
Частота : 48,0 КГц
Частота кадров : 31,250 кадров/сек (1536 spf)
Метод сжатия : С потерями
Размер потока : 434 Мбайт (6%)
Заголовок : AVO (Юрий Живов)
Язык : Russian
Default : Нет
Forced : Нет

Аудио #4
Идентификатор : 5
Формат : AC-3
Формат/Информация : Audio Coding 3
Расширение режима : CM (complete main)
Параметр Endianness формата : Big
Идентификатор кодека : A_AC3
Продолжительность : 2 ч. 37 м.
Вид битрейта : Постоянный
Битрейт : 384 Кбит/сек
Каналы : 6 каналов
Расположение каналов : Front: L C R, Side: L R, LFE
Частота : 48,0 КГц
Частота кадров : 31,250 кадров/сек (1536 spf)
Метод сжатия : С потерями
Размер потока : 434 Мбайт (6%)
Заголовок : Original
Язык : French
Default : Нет
Forced : Нет

Текст #1
Идентификатор : 6
Формат : UTF-8
Идентификатор кодека : S_TEXT/UTF8
Идентификатор кодека/Информация : UTF-8 Plain Text
Продолжительность : 2 ч. 33 м.
Битрейт : 59 бит/сек
Count of elements : 996
Размер потока : 67,1 Кбайт (0%)
Заголовок : русский
Язык : Russian
Default : Нет
Forced : Нет

Текст #2
Идентификатор : 7
Формат : UTF-8
Идентификатор кодека : S_TEXT/UTF8
Идентификатор кодека/Информация : UTF-8 Plain Text
Продолжительность : 2 ч. 32 м.
Битрейт : 30 бит/сек
Count of elements : 1254
Размер потока : 34,5 Кбайт (0%)
Заголовок : английский
Язык : English
Default : Нет
Forced : Нет
pb.wtf



Скачать Индокитай через торрент http://s019.radikal.ru/i602/1605/fc/1e6c843d2758.jpg Скачать фильм Индокитай через торрент бесплантно в хорошем качестве Описание: Элиана, богатая владелица плантации каучука, знакомится с недавно приехавшим морским офицером и влюбляется в него вопреки своей ... 9 10 1
Info! Золотая раздача, скачанное не засчитывается.
Торрент: Зарегистрирован [2016-05-17 10:21] · скачан: 22 раз
Статус: √ проверено
Размер: 7.51 GB
Как cкачать? Как скачать Индокитай через торрент | qTorrent

28-11-2019 20:33  

Отключить всю рекламу на сайте

    Дорогой пользователь! Огромная просьба, поблагодарите релизера, оцените раздачу и оставьте свои комментарий, если Вы скачали Индокитай через торрент бесплатно! Внесите свою лепту в развитие PiratBit!
    Комментировать посты могут только пользователи прошедшие не сложную регистрацию
    Показать сообщения:    

    Индокитай через торрент
    Скачать бесплатно Индокитай
    Индокитай скачать торрент
    Индокитай смотреть онлайн
    Cкачать фильм Индокитай бесплатно
    Индокитай скачать торрент в хорошем качестве
    Индокитай смотреть онлайн бесплатно в хорошем качестве


    Вы не можете начинать темы
    Вы не можете отвечать на сообщения
    Вы не можете редактировать свои сообщения
    Вы не можете удалять свои сообщения
    Вы не можете голосовать в опросах
    Вы не можете прикреплять файлы к сообщениям
    Вы можете скачивать файлы