2 сезон

iTunes

MVO

1

2 сезон

iTunes

iTunes

1 сезон

RePack

30

Новинка

ВАЖНО

ИГРА 18+

pack

RePack

MK11
pack

Легкие деньги

RePack

jed

RePack

fifa19

RePack

RDR2

RePack

NEED FOR SPEED™ PAYBACK

4 сезон

9 сезон

Бесстыжие 9 сезон

Все сериалы

все сериалы на PB.wtf

RePack

FAR CRY 5

Anonymous, доброй ночи, мы не успеваем собрать деньги на оплату серверов за декабрь и январь, помогите нам пожалуйста в это трудное время. В качестве благодарности мы отключим Вам всю рекламу на сайте (укажите свой ник в строку Ваше имя)!

×
  
Magnet ссылка

Завтра нашего мира / Tomorrow's World: A Horizon Special (Грехам Стронг) [2013 г., документальный, научно-популярный, HDTV 1080i, Профессиональный (двухголосый)] pb.wtf

Завтра нашего мира через торрент pb.wtf

Размер: 2.15 GB | Добавлен: 4 года 8 мес. назад | Торрент скачан:86 раз
Скачать  

17-05-2016 12:25 Завтра нашего мира Скачать торрент  

Завтра нашего мира / Tomorrow's World: A Horizon Special

Год выпуска: 2013
Страна: Великобритания, BBC
Жанр: документальный, научно-популярный
Продолжительность: 00:49:30
Перевод: Профессиональный (двухголосый) |Видео-фильм ТВ|


Режиссер: Грехам Стронг

Описание: Научные идеи изменяют наш мир с поразительной скоростью и эффективностью. Специальный выпуск документального цикла Horizon от телекомпании BBC посвящен четырем направлениям науки, которые сулят человечеству неслыханные блага: освоение ближнего космоса, нанотехнологии, биоинженерия, альтернативная энергетика. Ведущая программы Лиз Бонин познакомит нас с удивительными людьми - учеными и исследователями, которые непосредственно принимают участие в реализации поистине фантастических проектов

Качество: HDTV 1080i
Формат: TS
Видео кодек: AVC
Аудио кодек: AC3
Видео: 1920x1080 at 25.000 fps, MPEG-4 AVC, ~5530 kbps avg
Аудио#1: Russian: 48 kHz, AC3, 2/0 (L,R) ch, ~192.00 kbps avg |Профессиональный (двухголосый) |Видео-фильм ТВ|
Аудио#2: English: 48 kHz, AC3, 2/0 (L,R) ch, ~192.00 kbps avg

Код:

Format                                   : MPEG-TS
File size                                : 2.15 GiB
Duration                                 : 49mn 29s
Overall bit rate mode                    : Variable
Overall bit rate                         : 6 226 Kbps
Maximum Overall bit rate                 : 35.5 Mbps

Video
ID                                       : 4113 (0x1011)
Menu ID                                  : 1 (0x1)
Format                                   : AVC
Format/Info                              : Advanced Video Codec
Format profile                           : High@L4
Format settings, CABAC                   : Yes
Format settings, ReFrames                : 4 frames
Format settings, GOP                     : M=4, N=32
Codec ID                                 : 27
Duration                                 : 49mn 29s
Bit rate mode                            : Variable
Bit rate                                 : 5 530 Kbps
Maximum bit rate                         : 40.0 Mbps
Width                                    : 1 920 pixels
Height                                   : 1 080 pixels
Display aspect ratio                     : 16:9
Frame rate                               : 25.000 fps
Color space                              : YUV
Chroma subsampling                       : 4:2:0
Bit depth                                : 8 bits
Scan type                                : Interlaced
Scan order                               : Top Field First
Bits/(Pixel*Frame)                       : 0.107
Stream size                              : 1.91 GiB (89%)
Color range                              : Limited
Color primaries                          : BT.709
Transfer characteristics                 : BT.709
Matrix coefficients                      : BT.709

Audio #1
ID                                       : 4352 (0x1100)
Menu ID                                  : 1 (0x1)
Format                                   : AC-3
Format/Info                              : Audio Coding 3
Mode extension                           : CM (complete main)
Format settings, Endianness              : Big
Codec ID                                 : 129
Duration                                 : 49mn 29s
Bit rate mode                            : Constant
Bit rate                                 : 192 Kbps
Channel(s)                               : 2 channels
Channel positions                        : Front: L R
Sampling rate                            : 48.0 KHz
Bit depth                                : 16 bits
Compression mode                         : Lossy
Delay relative to video                  : -40ms
Stream size                              : 68.0 MiB (3%)
Language                                 : Russian

Audio #2
ID                                       : 4353 (0x1101)
Menu ID                                  : 1 (0x1)
Format                                   : AC-3
Format/Info                              : Audio Coding 3
Mode extension                           : CM (complete main)
Format settings, Endianness              : Big
Codec ID                                 : 129
Duration                                 : 49mn 29s
Bit rate mode                            : Constant
Bit rate                                 : 192 Kbps
Channel(s)                               : 2 channels
Channel positions                        : Front: L R
Sampling rate                            : 48.0 KHz
Bit depth                                : 16 bits
Compression mode                         : Lossy
Delay relative to video                  : -40ms
Stream size                              : 68.0 MiB (3%)
Language                                 : English

pb.wtf



Скачать Завтра нашего мира через торрент http://i5.imageban.ru/out/2016/05/17/8c9695552f24c9c2faee274517b5b249.jpg Скачать фильм Завтра нашего мира через торрент бесплантно в хорошем качестве Описание: Научные идеи изменяют наш мир с поразительной скоростью и эффективностью. Специальный выпуск документального цикла Horizon от ... 9.3 10 3
Торрент: Зарегистрирован [2016-05-17 12:25] · скачан: 86 раз
Статус: √ проверено
Размер: 2.15 GB
Как cкачать? Как скачать Завтра нашего мира через торрент | UTorrent

28-11-2019 20:33  

Отключить всю рекламу на сайте

    Дорогой пользователь! Огромная просьба, поблагодарите релизера, оцените раздачу и оставьте свои комментарий, если Вы скачали Завтра нашего мира через торрент бесплатно! Внесите свою лепту в развитие PiratBit!
    Комментировать посты могут только пользователи прошедшие не сложную регистрацию
    Показать сообщения:    

    Завтра нашего мира через торрент
    Скачать бесплатно Завтра нашего мира
    Завтра нашего мира скачать торрент
    Завтра нашего мира смотреть онлайн
    Cкачать фильм Завтра нашего мира бесплатно
    Завтра нашего мира скачать торрент в хорошем качестве
    Завтра нашего мира смотреть онлайн бесплатно в хорошем качестве


    Вы не можете начинать темы
    Вы не можете отвечать на сообщения
    Вы не можете редактировать свои сообщения
    Вы не можете удалять свои сообщения
    Вы не можете голосовать в опросах
    Вы не можете прикреплять файлы к сообщениям
    Вы можете скачивать файлы