Ссылка на приватное зеркало всего за 1$. Внимание количество ограничено!!!

iTunes

iTunes

iTunes

1

iTunes

iTunes

iTunes

iTunes

iTunes

30
pack

$ от Little Big

ВАЖНО

!!Акция!!

Alien_RageХит недели

RePack

Resident Evil 21

ИГРА 18+

pack

RePack

jed

!!Акция!!

Alien_Rage

RePack

fifa19

RePack

Assassins Creed: Odyssey

RePack

NEED FOR SPEED™ PAYBACK

4 сезон

9 сезон

Бесстыжие 9 сезон

Все сериалы

все сериалы на PB.wtf

RePack

FAR CRY 5
  

Команда уничтожить / Kill Command (Стивен Гомез) [2016 г., Ужасы, фантастика, боевик, WEB-DL 1080p] MVO [Parovoz Production] (Без рекламы) pb.wtf

Команда уничтожить через торрент pb.wtf

Размер: 3.42 GB | Добавлен: 4 года 1 мес. назад | Торрент скачан:279 раз
Скачать  

17-05-2016 21:28 Команда уничтожить Скачать торрент  

Команда уничтожить / Kill Command«Подчинись роботам!»

Год выпуска » 2016
Страна » Великобритания
Жанр » Ужасы, фантастика, боевик
Продолжительность » 01:39:37
Перевод » Любительский (многоголосный) [Parovoz Production]
Субтитры » Отсутствуют

В ролях
» Ванесса Кирби, Туре Линдхардт, Дэвид Аджала, Майк Ноубл, Том МакКэй, Бентли Калу, Оси Окерафор, Дебора Росан, Келли Гоф, Тим Ахерн


Режиссёр
» Стивен Гомез

» Недалекое будущее. Экспериментальный отряд специальных агентов высаживается на необитаемом острове для прохождения интенсивных боевых учений. Но на острове высадился кто-то еще. И это - не люди...
• Качество » WEB-DL 1080p
• Формат » MKV
• Видео кодек » AVC
• Аудио кодек » AC3
• Видео » 1916x796 (2.40:1), 24.000 fps, AVC, 4 241 Kbps
• Аудио » Русский (AC-3 / 2 ch / 192 kbps / 48,0 КГц / 16 bit )
• Аудио » Английский (AC-3 / 6 ch / 384 kbps / 48,0 КГц / 16 bit)



Дата мировой премьеры: 13 мая 2016
General
Unique ID : 186340115073428461820163338476454597187 (0x8C2FCCFDB1683876AEB3FA0AC1AAD243)
Complete name : Команда.уничтожить.2016.WEB-DL.[1080p].NNMClub.to.mkv
Format : Matroska
Format version : Version 2
File size : 3.42 GiB
Duration : 1h 39mn
Overall bit rate : 4 915 Kbps
Movie name : Команда.уничтожить.2016.WEB-DL.[1080p].NNMClub.to
Encoded date : UTC 2016-05-16 20:47:54
Writing application : mkvmerge v8.3.0 ('Over the Horizon') 64bit
Writing library : libebml v1.3.1 + libmatroska v1.4.2

Video
ID : 1
Format : AVC
Format/Info : Advanced Video Codec
Format profile : High@L4.0
Format settings, CABAC : Yes
Format settings, ReFrames : 5 frames
Codec ID : V_MPEG4/ISO/AVC
Duration : 1h 39mn
Bit rate : 4 241 Kbps
Width : 1 916 pixels
Height : 796 pixels
Display aspect ratio : 2.40:1
Frame rate mode : Constant
Frame rate : 24.000 fps
Color space : YUV
Chroma subsampling : 4:2:0
Bit depth : 8 bits
Scan type : Progressive
Bits/(Pixel*Frame) : 0.116
Stream size : 2.95 GiB (86%)
Title : Команда.уничтожить.2016.WEB-DL.[1080p].NNMClub.to
Language : English
Default : Yes
Forced : No
Color primaries : BT.709
Transfer characteristics : BT.709
Matrix coefficients : BT.709

Audio #1
ID : 2
Format : AC-3
Format/Info : Audio Coding 3
Mode extension : CM (complete main)
Format settings, Endianness : Big
Codec ID : A_AC3
Duration : 1h 39mn
Bit rate mode : Constant
Bit rate : 192 Kbps
Channel(s) : 2 channels
Channel positions : Front: L R
Sampling rate : 48.0 KHz
Bit depth : 16 bits
Compression mode : Lossy
Stream size : 137 MiB (4%)
Title : Parovoz Production
Language : Russian
Default : Yes
Forced : No

Audio #2
ID : 3
Format : AC-3
Format/Info : Audio Coding 3
Mode extension : CM (complete main)
Format settings, Endianness : Big
Codec ID : A_AC3
Duration : 1h 39mn
Bit rate mode : Constant
Bit rate : 384 Kbps
Channel(s) : 6 channels
Channel positions : Front: L C R, Side: L R, LFE
Sampling rate : 48.0 KHz
Bit depth : 16 bits
Compression mode : Lossy
Stream size : 274 MiB (8%)
Title : Original
Language : English
Default : No
Forced : No

Menu
00:00:00.000 : en:Chapter 1
00:10:12.416 : en:Chapter 2
00:17:08.666 : en:Chapter 3
00:25:42.832 : en:Chapter 4
00:36:12.457 : en:Chapter 5
00:44:49.540 : en:Chapter 6
00:54:52.581 : en:Chapter 7
01:01:36.914 : en:Chapter 8
01:09:21.622 : en:Chapter 9
01:17:54.122 : en:Chapter 10
01:26:42.997 : en:Chapter 11
01:32:24.288 : en:Chapter 12
[/code]
скриншот   скриншот   скриншот   скриншот  
pb.wtf



Скачать Команда уничтожить через торрент http://i74.fastpic.ru/big/2015/1218/b5/c39d072d168dbcde95d1a17f670689b5.gif Скачать фильм Команда уничтожить через торрент бесплантно в хорошем качестве В ролях » Ванесса Кирби, Туре Линдхардт, Дэвид Аджала, Майк Ноубл, Том МакКэй, Бентли Калу, Оси Окерафор, Дебора Росан, Келли Гоф, Тим ... 9.3 10 16
Торрент: Зарегистрирован [2016-05-17 21:28] · скачан: 279 раз
Статус: T временная
Размер: 3.42 GB
Как cкачать? Как скачать Команда уничтожить через торрент | qTorrent

% Раздел Тема Автор DL S | L
T Фильмы 2016 [DVDrip, WEB-DLRip, HDrip] (DUB, MVO) [ 1.46 GB ] Команда уничтожить / Kill Command [2016 BDRip] [MVO] killermax2013 Скачать
2 | 0
T Релизы по Парсеру [Игры, Сериалы и Фильмы и другое...] [ 10.29 GB ] Команда уничтожить / Kill Command BDRip 1080p Ворон Скачать
1 | 0
T Фильмы [HD 720p, 1080p] (Хороший звук DUB, MVO) [ 4.93 GB ] Команда уничтожить / Kill Command [2016 BDRip 720p] MVO SergAS70 Скачать
1 | 0
T Фильмы 2016 [DVDrip, WEB-DLRip, HDrip] (DUB, MVO) [ 746 MB ] Команда уничтожить / Kill Command [2016 WEB-DLRip] MVO Sherif Скачать
1 | 0
T R.G. Resident & PiratVoice - Фильмы, Видео [ 1.46 GB ] Команда уничтожить / Kill Command [2016 BDRip-AVC Любительский двухголосый [Parovoz Production] R.G.Resident White Smoke Скачать
1 | 0
T Фильмы 2016 [DVDrip, WEB-DLRip, HDrip] (DUB, MVO) [ 1.46 GB ] Команда уничтожить / Kill Command [2016 BDRip] MVO [Parovoz Production] $-DRON-$ Скачать
1 | 0
T Фильмы 2016 [DVDrip, WEB-DLRip, HDrip] (DUB, MVO) [ 1.45 GB ] Команда уничтожить / Kill Command [2016 WEB-DLRip] MVO [Parovoz Production] $-DRON-$ Скачать
1 | 0

28-11-2019 20:33  

Отключить всю рекламу на сайте

18-05-2016 04:34 Команда уничтожить Скачать торрент  

Как фильм кто нибудь смотрел?pb.wtf



18-05-2016 20:34 Команда уничтожить Скачать торрент  

Очень спорные оценки, Актерский состав весь целиком из американских сериалов.pb.wtf



    Дорогой пользователь! Огромная просьба, поблагодарите релизера, оцените раздачу и оставьте свои комментарий, если Вы скачали Команда уничтожить через торрент бесплатно! Внесите свою лепту в развитие PiratBit!
    Комментировать посты могут только пользователи прошедшие не сложную регистрацию
    Показать сообщения:    

    Команда уничтожить через торрент
    Скачать бесплатно Команда уничтожить
    Команда уничтожить скачать торрент
    Команда уничтожить смотреть онлайн
    Cкачать фильм Команда уничтожить бесплатно
    Команда уничтожить скачать торрент в хорошем качестве
    Команда уничтожить смотреть онлайн бесплатно в хорошем качестве


    Вы не можете начинать темы
    Вы не можете отвечать на сообщения
    Вы не можете редактировать свои сообщения
    Вы не можете удалять свои сообщения
    Вы не можете голосовать в опросах
    Вы не можете прикреплять файлы к сообщениям
    Вы можете скачивать файлы