Ссылка на приватное зеркало нашего сайта всего за 1$. Внимание количество ограничено!!!

2 сезон

iTunes

1 сезон

1

2 сезон

2 сезон

iTunes

1 сезон

RePack

30

Ultimate

ВАЖНО

ИГРА 18+

pack

RePack

MK11
pack

Забери бонус

RePack

jed

!!Акция!!

Alien_Rage

RePack

fifa19

RePack

Assassins Creed: Odyssey

RePack

NEED FOR SPEED™ PAYBACK

4 сезон

9 сезон

Бесстыжие 9 сезон

Все сериалы

все сериалы на PB.wtf

RePack

FAR CRY 5
  

Пеле: Рождение легенды / Pelé: Birth of a Legend (Джефф Цимбалист, Майкл Цимбалист) [2016, драма, биография, спорт, WEB-DL 1080p] [ENG] pb.wtf

Пеле: Рождение легенды через торрент pb.wtf

Размер: 3.68 GB | Добавлен: 4 года 6 мес. назад | Торрент скачан:27 раз
Скачать  

18-05-2016 08:51 Пеле: Рождение легенды Скачать торрент  

Пеле: Рождение легенды / Pelé: Birth of a Legend
Год выпуска: 2016
премьера (РФ) --- 23 июня 2016, «Парадиз»
Страна: США
Жанр: драма, биография, спорт
Продолжительность: 01:46:16
Перевод: Отсутствует! [английский оригинал]
Субтитры: английские

Режиссеры: Джефф Цимбалист, Майкл Цимбалист

В ролях: Винсент Д’Онофрио, Родриго Санторо, Диего Бонета, Колм Мини, Kevin de Paula, Сеу Жоржи, Тоня Корнелисс, Мариана Балса, Андре Маттос, Leonardo Lima Carvalho Pele's meteoric rise from the slums of Sao Paulo to leading to Brazil to its first World Cup victory at the age of 17 is chronicled in this biographical drama.



Качество видео: WEB-DL 1080p
Формат видео: MKV
Видео: MPEG-4 AVC, 4448 Кбит/с, 1916x794, 23.976 fps
Аудио: AC3, 384 Kbps, 48.0 KHz, 6 ch
Video
ID : 1
Format : AVC
Format/Info : Advanced Video Codec
Format profile : High@L4
Format settings, CABAC : Yes
Format settings, ReFrames : 5 frames
Codec ID : V_MPEG4/ISO/AVC
Duration : 1h 46mn
Bit rate : 4 448 Kbps
Width : 1 916 pixels
Height : 794 pixels
Display aspect ratio : 2.40:1
Frame rate mode : Constant
Frame rate : 23.976 fps
Color space : YUV
Chroma subsampling : 4:2:0
Bit depth : 8 bits
Scan type : Progressive
Bits/(Pixel*Frame) : 0.122
Stream size : 3.32 GiB (90%)
Title : Pele.Birth.Of.A.Legend.2016.1080p.WEB-DL.DD5.1
Language : English
Default : Yes
Forced : No
Color range : Limited
Color primaries : BT.709
Transfer characteristics : BT.709
Matrix coefficients : BT.709

Audio
ID : 2
Format : AC-3
Format/Info : Audio Coding 3
Mode extension : CM (complete main)
Format settings, Endianness : Big
Codec ID : A_AC3
Duration : 1h 46mn
Bit rate mode : Constant
Bit rate : 384 Kbps
Channel(s) : 6 channels
Channel positions : Front: L C R, Side: L R, LFE
Sampling rate : 48.0 KHz
Frame rate : 31.250 fps (1536 spf)
Compression mode : Lossy
Stream size : 294 MiB (8%)
Title : Pele.Birth.Of.A.Legend.2016.1080p.WEB-DL.DD5.1
Language : English
Default : Yes
Forced : No

Text
ID : 3
Format : UTF-8
Codec ID : S_TEXT/UTF8
Codec ID/Info : UTF-8 Plain Text
Language : English
Default : Yes
Forced : No

Menu
00:00:00.000 : en:Chapter 1
00:08:32.554 : en:Chapter 2
00:16:21.022 : en:Chapter 3
00:25:50.508 : en:Chapter 4
00:33:23.335 : en:Chapter 5
00:43:28.314 : en:Chapter 6
00:51:36.135 : en:Chapter 7
01:01:11.543 : en:Chapter 8
01:09:42.595 : en:Chapter 9
01:17:53.294 : en:Chapter 10
01:27:21.487 : en:Chapter 11
01:41:54.818 : en:Chapter 12

[/code]
pb.wtf



Скачать Пеле: Рождение легенды через торрент http://i80.fastpic.ru/big/2016/0518/03/bdb02e814654cb51ba2669a0bb5dff03.jpg Скачать фильм Пеле: Рождение легенды через торрент бесплантно в хорошем качестве В ролях: Винсент Д’Онофрио, Родриго Санторо, Диего Бонета, Колм Мини, Kevin de Paula, Сеу Жоржи, Тоня Корнелисс, Мариана Балса, Андре ... 10 10 1
Торрент: Зарегистрирован [2016-05-18 08:51] · скачан: 27 раз
Статус: √ проверено
Размер: 3.68 GB
Как cкачать? Как скачать Пеле: Рождение легенды через торрент | qTorrent

% Раздел Тема Автор DL S | L
Фильмы 2016 [DVDrip, WEB-DLRip, HDrip] (DUB, MVO) [ 2 GB ] Пеле: Рождение легенды / Pelé: Birth of a Legend [2016 биография HDRip-AVC] [] от MediaBit Lithuania Скачать
2 | 0
Фильмы 2016 [DVDrip, WEB-DLRip, HDrip] (DUB, MVO) [ 1.46 GB ] Пеле: Рождение легенды / Pelé: Birth of a Legend [2016 биография BDRip] - [] Twi7ter Скачать
2 | 0
Фильмы 2016 [DVDrip, WEB-DLRip, HDrip] (DUB, MVO) [ 2.05 GB ] Пеле: Рождение легенды / Pelé: Birth of a Legend [2016 биография HDRip ""] coc900 Скачать
1 | 0
Фильмы (Blu-ray, BD-Remux, HDDVD) [ 27.89 GB ] Пеле: Рождение легенды / Pelé: Birth of a Legend [2016 биография Blu-Ray Remux 1080p] killermax2013 Скачать
1 | 0


Последний раз редактировалось: killermax2013 (2016-05-18 10:13), всего редактировалось 2 раз(а)

28-11-2019 20:33  

Отключить всю рекламу на сайте

18-05-2016 09:30 Пеле: Рождение легенды Скачать торрент  

Блин до перевода ещё далеко pb.wtf



18-05-2016 09:45 Пеле: Рождение легенды Скачать торрент  

zra писал(а):

Блин до перевода ещё далеко

думаю всякие там паровозопродакш совместно с жойказлино скоро перевод забабахают pb.wtf



18-05-2016 09:55 Пеле: Рождение легенды Скачать торрент  

Скрины и кинопоиск с другого фильмаpb.wtf



    Дорогой пользователь! Огромная просьба, поблагодарите релизера, оцените раздачу и оставьте свои комментарий, если Вы скачали Пеле: Рождение легенды через торрент бесплатно! Внесите свою лепту в развитие PiratBit!
    Комментировать посты могут только пользователи прошедшие не сложную регистрацию
    Показать сообщения:    

    Пеле: Рождение легенды через торрент
    Скачать бесплатно Пеле: Рождение легенды
    Пеле: Рождение легенды скачать торрент
    Пеле: Рождение легенды смотреть онлайн
    Cкачать фильм Пеле: Рождение легенды бесплатно
    Пеле: Рождение легенды скачать торрент в хорошем качестве
    Пеле: Рождение легенды смотреть онлайн бесплатно в хорошем качестве


    Вы не можете начинать темы
    Вы не можете отвечать на сообщения
    Вы не можете редактировать свои сообщения
    Вы не можете удалять свои сообщения
    Вы не можете голосовать в опросах
    Вы не можете прикреплять файлы к сообщениям
    Вы можете скачивать файлы