Ссылка на приватное зеркало нашего сайта всего за 1$. Внимание количество ограничено!!!

2 сезон

iTunes

1 сезон

1

iTunes

iTunes

iTunes

1 сезон

RePack

30

ИГРА 18+

pack

ВАЖНО

!!Акция!!

Alien_RageХит недели

RePack

MK11
pack

Забери бонус

RePack

jed

!!Акция!!

Alien_Rage

RePack

fifa19

RePack

Assassins Creed: Odyssey

RePack

NEED FOR SPEED™ PAYBACK

4 сезон

9 сезон

Бесстыжие 9 сезон

Все сериалы

все сериалы на PB.wtf

RePack

FAR CRY 5
  

Боги Египта / Gods of Egypt (Алекс Пройас ) [2016, фэнтези, боевик, приключения, BDRip 1080p от NNNB] DUB (Лицензия) pb.wtf

Боги Египта через торрент pb.wtf

Раздают: 1 [ 0 KB/s ]
Размер: 11.66 GB | Добавлен: 4 года 5 мес. назад | Торрент скачан:1351 раз
Скачать  

19-05-2016 16:21 Боги Египта Скачать торрент  

Боги Египта / Gods of Egypt
«All of Heaven is at war»


Год выпуска: 2016
Страна: США, Австралия
Жанр: фэнтези, боевик, приключения
Продолжительность: 02:07:02
Перевод: Дублированный - [Лицензия]
Субтитры: русские, английские
Режиссер: Алекс Пройас
В ролях: Брентон Туэйтс , Джерард Батлер , Николай Костер-Вальдау , Чедвик Боузман , Элоди Юнг , Кортни Итон , Руфус Сьюэлл , Джеффри Раш , Брайан Браун , Рэйчел Блейк , Эмма Бут , Александр Инглэнд
Описание:
Некогда мирное и процветающее египетское царство погружается в хаос: беспощадный бог тьмы Сет убивает своего брата Осириса и узурпирует трон. Вызов ему неожиданно бросает простой смертный, находчивый молодой вор. Чтобы вернуть к жизни свою прекрасную возлюбленную, ему приходится заручиться поддержкой могущественного и мстительного бога Гора. Лишь выдержав испытание на прочность и принеся в жертву все самое дорогое, им удастся противостоять Сету и его приспешникам в мире живых и мире мертвых.

PG-13 - Детям до 13 лет просмотр не желателен
Качество: BDRip 1080p
Контейнер (Расширение): MKV
Видео: 1920x800, 11603 Кбит/сек, 23,976 кадр/сек, 0,315 Бит/[Пиксели*Кадры]
Аудио №1: русский / AC3 / 5.1 / 48 kHz / 640 kbps / 16 bit |Дублированный - [Лицензия]|
Аудио №2: английский / AC3 / 5.1 / 48 kHz / 640 kbps / 16 bit
Навигация по главам(Чаптеры): есть
Видеоряд: EPiC@HDAreaРелиз от: Сообщество:

Код:

Format                                   : Matroska
Format version                           : Version 2
File size                                : 11.7 GiB
Duration                                 : 2h 7mn
Overall bit rate                         : 13.1 Mbps
Movie name                               : Gods.of.Egypt.(2016).BDRip.1080p.[NNNB]
Encoded date                             : UTC 2016-05-21 11:35:45
Writing application                      : mkvmerge v5.8.0 ('No Sleep / Pillow') built on Sep  2 2012 15:37:04
Writing library                          : libebml v1.2.3 + libmatroska v1.3.0

Video
ID                                       : 1
Format                                   : AVC
Format/Info                              : Advanced Video Codec
Format profile                           : High@L4.1
Format settings, CABAC                   : Yes
Format settings, ReFrames                : 5 frames
Codec ID                                 : V_MPEG4/ISO/AVC
Duration                                 : 2h 7mn
Bit rate                                 : 11.6 Mbps
Width                                    : 1 920 pixels
Height                                   : 800 pixels
Display aspect ratio                     : 2.40:1
Frame rate                               : 23.976 fps
Color space                              : YUV
Chroma subsampling                       : 4:2:0
Bit depth                                : 8 bits
Scan type                                : Progressive
Bits/(Pixel*Frame)                       : 0.315
Stream size                              : 10.3 GiB (88%)
Title                                    : Gods.of.Egypt.(2016).BDRip.1080p.[NNNB]
Writing library                          : x264 core 142 r2431+42 c69a006 tMod [8-bit@all X86_64]
Encoding settings                        : cabac=1 / ref=5 / deblock=1:-3:-3 / analyse=0x3:0x133 / me=umh / subme=11 / psy=1 / fade_compensate=0.00 / psy_rd=0.90:0.00 / mixed_ref=1 / me_range=32 / chroma_me=1 / trellis=2 / 8x8dct=1 / cqm=0 / deadzone=21,11 / fast_pskip=0 / chroma_qp_offset=-2 / threads=12 / lookahead_threads=2 / sliced_threads=0 / nr=0 / decimate=0 / interlaced=0 / bluray_compat=0 / constrained_intra=0 / fgo=0 / bframes=8 / b_pyramid=2 / b_adapt=2 / b_bias=0 / direct=3 / weightb=1 / open_gop=0 / weightp=2 / keyint=240 / keyint_min=23 / scenecut=40 / intra_refresh=0 / rc_lookahead=60 / rc=crf / mbtree=0 / crf=16.1000 / qcomp=0.60 / qpmin=0:0:0 / qpmax=69:69:69 / qpstep=4 / vbv_maxrate=40000 / vbv_bufsize=30000 / crf_max=0.0 / nal_hrd=none / filler=0 / ip_ratio=1.40 / pb_ratio=1.30 / aq=1:0.90 / aq-sensitivity=10.00 / aq-factor=1.00:1.00:1.00 / aq2=0 / aq3=0
Language                                 : English
Default                                  : Yes
Forced                                   : No

Audio #1
ID                                       : 2
Format                                   : AC-3
Format/Info                              : Audio Coding 3
Mode extension                           : CM (complete main)
Codec ID                                 : A_AC3
Duration                                 : 2h 7mn
Bit rate mode                            : Constant
Bit rate                                 : 640 Kbps
Channel(s)                               : 6 channels
Channel positions                        : Front: L C R, Side: L R, LFE
Sampling rate                            : 48.0 KHz
Bit depth                                : 16 bits
Compression mode                         : Lossy
Stream size                              : 582 MiB (5%)
Title                                    : Дублированный
Language                                 : Russian
Default                                  : Yes
Forced                                   : No

Audio #2
ID                                       : 3
Format                                   : AC-3
Format/Info                              : Audio Coding 3
Mode extension                           : CM (complete main)
Codec ID                                 : A_AC3
Duration                                 : 2h 7mn
Bit rate mode                            : Constant
Bit rate                                 : 640 Kbps
Channel(s)                               : 6 channels
Channel positions                        : Front: L C R, Side: L R, LFE
Sampling rate                            : 48.0 KHz
Bit depth                                : 16 bits
Compression mode                         : Lossy
Stream size                              : 582 MiB (5%)
Language                                 : English
Default                                  : No
Forced                                   : No

Text #1
ID                                       : 4
Format                                   : UTF-8
Codec ID                                 : S_TEXT/UTF8
Codec ID/Info                            : UTF-8 Plain Text
Language                                 : Russian
Default                                  : No
Forced                                   : No

Text #2
ID                                       : 5
Format                                   : UTF-8
Codec ID                                 : S_TEXT/UTF8
Codec ID/Info                            : UTF-8 Plain Text
Language                                 : English
Default                                  : No
Forced                                   : No

Menu
00:00:00.000                             : en:00:00:00.000
00:07:08.011                             : en:00:07:08.011
00:18:07.545                             : en:00:18:07.545
00:23:47.259                             : en:00:23:47.259
00:30:11.810                             : en:00:30:11.810
00:39:16.521                             : en:00:39:16.521
00:46:30.621                             : en:00:46:30.621
00:54:46.074                             : en:00:54:46.074
01:01:14.129                             : en:01:01:14.129
01:09:29.040                             : en:01:09:29.040
01:18:03.345                             : en:01:18:03.345
01:28:18.251                             : en:01:28:18.251
01:36:12.058                             : en:01:36:12.058
01:39:14.657                             : en:01:39:14.657
01:46:58.328                             : en:01:46:58.328
01:52:11.016                             : en:01:52:11.016

pb.wtf



Скачать Боги Египта через торрент http://i79.fastpic.ru/big/2016/0519/db/63e1e25c3d54eed0ada327c6e000c9db.png Скачать фильм Боги Египта через торрент бесплантно в хорошем качестве Описание:Некогда мирное и процветающее египетское царство погружается в хаос: беспощадный бог тьмы Сет убивает своего брата Осириса и ... 9.5 10 50
Info! Золотая раздача, скачанное не засчитывается.
Торрент: Зарегистрирован [2016-05-21 11:47] · скачан: 1 351 раз
Статус: √ проверено
Размер: 11.66 GB
Как cкачать? Как скачать Боги Египта через торрент | qTorrent

% Раздел Тема Автор DL S | L
Фильмы [HD 720p, 1080p] (Хороший звук DUB, MVO) [ 15.83 GB ] Боги Египта / Gods of Egypt [2016 BDRip 1080p] DUB [] +AVO [А. Матвеев] bober100 Скачать
1 | 0
Ultra HD (UHD: 2K, 4K, 8K) — видео сверхвысокой чёткости [ 58.38 GB ] Боги Египта / Gods of Egypt [2016 UHD BDRemux 2160p] DUB [] +2xAVO bober100 Скачать
1 | 0
Ultra HD (UHD: 2K, 4K, 8K) — видео сверхвысокой чёткости [ 56.39 GB ] Боги Египта / Gods of Egypt [2016 UHD BDRemux 2160p] DUB [] + AVO [А. Матвеев] sheker187 Скачать
1 | 0
Ultra HD (UHD: 2K, 4K, 8K) — видео сверхвысокой чёткости [ 27.66 GB ] Боги Египта / Gods of Egypt [2016 UHD WEBRip 2160p] - [] sheker187 Скачать
1 | 0
Фильмы 2016 [DVDrip, WEB-DLRip, HDrip] (DUB, MVO) [ 2.91 GB ] Боги Египта / Gods of Egypt [2016 BDRip-AVC от sokol_ok] DUB sokol_ok Скачать
3 | 0
Фильмы 2016 [DVDrip, WEB-DLRip, HDrip] (DUB, MVO) [ 1.46 GB ] Боги Египта / Gods of Egypt [2016 BDRip] DUB Twi7ter Скачать
1 | 0
Фильмы (DVD фильмы) [ 6.74 GB ] Боги Египта / Gods of Egypt [2016 DVD9] R5 voovaz Скачать
1 | 0


Последний раз редактировалось: _denis_100 (2016-05-21 11:46), всего редактировалось 1 раз

28-11-2019 20:33  

Отключить всю рекламу на сайте

19-05-2016 17:11 Боги Египта Скачать торрент  

зачётный фильм спс , стоит посмотреть не пожалеете .pb.wtf



19-05-2016 18:53 Боги Египта Скачать торрент  

ни хера себе скорость,впервые такую вижу говорят фильм не очень,но раз столько народу раздает тем более с такой скоростью можно и глянутьpb.wtf



19-05-2016 18:54 Боги Египта Скачать торрент  

kpuctaluk писал(а):

уснул под него.сюжет хз что помпезно все.сестроеб с престолов бог млять с батлером на пару.непонравился фильм.

pb.wtf



20-05-2016 18:22 Боги Египта Скачать торрент  

У Коли Ланестера РУКА ВЫРОСЛА! Во, до чего техника дошла!pb.wtf



21-05-2016 09:56 Боги Египта Скачать торрент  

Так себе. Нарисовано красиво, но по сути - одноразовая сказочка. "Актёры" вообще играют ниочёмно.pb.wtf



22-05-2016 11:40 Боги Египта Скачать торрент  

Слабенький и скучный фильм. После 40 минут уже смотрел через силу. Если куча времени , то посмотрите на разок.pb.wtf



22-05-2016 15:47 Боги Египта Скачать торрент  

фильм детский! время зря! а от образа бога Ра до сих пор тошнит, какой-то дед разлагающийся, полутрупного видаpb.wtf



22-05-2016 15:59 Боги Египта Скачать торрент  

Был уверен, что фильм разочарует, но очень ошибся. Посмотрел налегке под пивко. Не пожалел потраченного времени.pb.wtf



    Дорогой пользователь! Огромная просьба, поблагодарите релизера, оцените раздачу и оставьте свои комментарий, если Вы скачали Боги Египта через торрент бесплатно! Внесите свою лепту в развитие PiratBit!
    Комментировать посты могут только пользователи прошедшие не сложную регистрацию
    Показать сообщения:    

    Боги Египта через торрент
    Скачать бесплатно Боги Египта
    Боги Египта скачать торрент
    Боги Египта смотреть онлайн
    Cкачать фильм Боги Египта бесплатно
    Боги Египта скачать торрент в хорошем качестве
    Боги Египта смотреть онлайн бесплатно в хорошем качестве


    Вы не можете начинать темы
    Вы не можете отвечать на сообщения
    Вы не можете редактировать свои сообщения
    Вы не можете удалять свои сообщения
    Вы не можете голосовать в опросах
    Вы не можете прикреплять файлы к сообщениям
    Вы можете скачивать файлы