Ссылка на приватное зеркало нашего сайта всего за 1$. Внимание количество ограничено!!!

2 сезон

iTunes

1 сезон

1

iTunes

iTunes

iTunes

1 сезон

RePack

30

ИГРА 18+

pack

ВАЖНО

!!Акция!!

Alien_RageХит недели

RePack

MK11
pack

Забери бонус

RePack

jed

!!Акция!!

Alien_Rage

RePack

fifa19

RePack

Assassins Creed: Odyssey

RePack

NEED FOR SPEED™ PAYBACK

4 сезон

9 сезон

Бесстыжие 9 сезон

Все сериалы

все сериалы на PB.wtf

RePack

FAR CRY 5
  

Команда «А» / The A-Team (Джо Карнахан / Joe Carnahan) [2010, боевик, триллер, комедия, BDRip 720p от potroks] DUB, AVO pb.wtf

Команда «А» через торрент pb.wtf

Размер: 7.95 GB | Добавлен: 4 года 5 мес. назад | Торрент скачан:334 раза
Скачать  

19-05-2016 17:19 Команда «А» Скачать торрент  

Команда «А» / The A-Team
«План 'Б' не предусмотрен»
Год выпуска: 2010
Страна: США, Великобритания / 20th Century Fox Film Corporation...
Жанр: боевик, триллер, комедия, приключения
Продолжительность: 02:13:34
Перевод: Дубляж [BD CEE], Авторский (одноголосый)
Субтитры: русские (форс.(х2)), русские (х2), английские (Forced + Full + SDH + SDH-Colored)
Навигация по главам: есть
Режиссер: Джо Карнахан / Joe Carnahan
В ролях:

Лиам Нисон (Hannibal), Брэдли Купер (Face), Шарлто Копли (Murdock), Куинтон Джексон (B.A. Baracus), Джессика Бил (Charissa Sosa), Патрик Уилсон (Lynch), Джералд МакРэйни (General Morrison), Генри Черни (Director McCready), Юл Васкес (General Javier Tuco), Брайан Блум (Pike), Мори Стерлинг (Gammons), Терри Чен (Ravech)
Описание: Группа ветеранов войны в Ираке, несправедливо обвиненных в преступлении, пытается найти истинных виновников и вернуть себе честное имя.

Качество: BDRip 720p
Формат: MKV
Видео кодек: AVC
Аудио кодек: AC3, DTS
Видео: 1280x544 (2.35:1), 5387 kbps, 23,976 fps, 0,323 bit/pixel
Аудио №1: DTS / 5.1 / 48 kHz / 755 kbps / 24 bit | DUB - Blu-ray CEE
Аудио №2: AC3 / 2.0 / 48 kHz / 192 kbps / 16 bit | MVO - 1 канал
Аудио №3: AC3 / 5.1 / 48 kHz / 640 kbps / 16 bit | AVO - Гаврилов
Аудио №4: AC3 / 5.1 / 48 kHz / 448 kbps / 16 bit | VO - Acolith
Аудио №5: AC3 / 5.1 / 48 kHz / 448 kbps / 16 bit | UKR - Blu-ray CEE
Аудио №6: AC3 / 5.1 / 48 kHz / 640 kbps / 16 bit | ENG

Код:

Общее
Уникальный идентификатор : 190717159883812300689456647894425449289 (0x8F7AC9F631A99344A2E1D56C3A4CB349)
Полное имя : Komanda_A.2010.EC.4xRus.Ukr.Eng.BDRip.720p.-HELLYWOOD.mkv
Формат : Matroska
Версия формата : Version 4 / Version 2
Размер файла : 7,95 Гбайт
Продолжительность : 2 ч. 13 м.
Общий поток : 8521 Кбит/сек
Название фильма : The A-Team (2010) [Extended Cut]
Дата кодирования : UTC 2016-05-06 07:35:47
Программа кодирования : mkvmerge v5.9.0 ('On The Loose') built on Dec 15 2012 16:39:58
Библиотека кодирования : libebml v1.3.0 + libmatroska v1.4.0

Видео
Идентификатор : 1
Формат : AVC
Формат/Информация : Advanced Video Codec
Профиль формата : High@L4.1
Параметр CABAC формата : Да
Параметр ReFrames формата : 9 кадров
Идентификатор кодека : V_MPEG4/ISO/AVC
Продолжительность : 2 ч. 13 м.
Битрейт : 5387 Кбит/сек
Ширина : 1280 пикселей
Высота : 544 пикселя
Соотношение сторон : 2,35:1
Режим частоты кадров : Постоянный
Частота кадров : 23,976 кадра/сек
Цветовое пространство : YUV
Субдискретизация насыщенности : 4:2:0
Битовая глубина : 8 бит
Тип развёртки : Прогрессивная
Бит/(Пиксели*Кадры) : 0.323
Размер потока : 4,87 Гбайт (61%)
Заголовок : potroks
Библиотека кодирования : x264 core 146 r2538 121396c
Настройки программы : cabac=1 / ref=9 / deblock=1:-3:-3 / analyse=0x3:0x113 / me=umh / subme=11 / psy=1 / psy_rd=0.96:0.00 / mixed_ref=1 / me_range=48 / chroma_me=1 / trellis=2 / 8x8dct=1 / cqm=0 / deadzone=21,11 / fast_pskip=0 / chroma_qp_offset=-2 / threads=9 / lookahead_threads=2 / sliced_threads=0 / nr=0 / decimate=0 / interlaced=0 / bluray_compat=0 / constrained_intra=0 / bframes=10 / b_pyramid=2 / b_adapt=2 / b_bias=0 / direct=3 / weightb=1 / open_gop=0 / weightp=2 / keyint=240 / keyint_min=23 / scenecut=40 / intra_refresh=0 / rc_lookahead=60 / rc=2pass / mbtree=0 / bitrate=5387 / ratetol=1.0 / qcomp=0.70 / qpmin=0 / qpmax=69 / qpstep=4 / cplxblur=20.0 / qblur=0.5 / vbv_maxrate=14000 / vbv_bufsize=14000 / nal_hrd=none / filler=0 / ip_ratio=1.40 / pb_ratio=1.30 / aq=1:0.80
Язык : English
Default : Да
Forced : Нет

Аудио #1
Идентификатор : 2
Формат : DTS
Формат/Информация : Digital Theater Systems
Режим : 16
Параметр Endianness формата : Big
Идентификатор кодека : A_DTS
Продолжительность : 2 ч. 13 м.
Вид битрейта : Постоянный
Битрейт : 768 Кбит/сек
Каналы : 6 каналов
Расположение каналов : Front: L C R, Side: L R, LFE
Частота : 48,0 КГц
Битовая глубина : 24 бит
Метод сжатия : С потерями
Размер потока : 734 Мбайт (9%)
Заголовок : Dub | DTS 5.1 @ 768 kbps - Blu-ray CEE
Язык : Russian
Default : Да
Forced : Нет

Аудио #2
Идентификатор : 3
Формат : AC-3
Формат/Информация : Audio Coding 3
Расширение режима : CM (complete main)
Параметр Endianness формата : Big
Идентификатор кодека : A_AC3
Продолжительность : 2 ч. 13 м.
Вид битрейта : Постоянный
Битрейт : 192 Кбит/сек
Каналы : 2 канала
Расположение каналов : Front: L R
Частота : 48,0 КГц
Метод сжатия : С потерями
Размер потока : 183 Мбайт (2%)
Заголовок : MVO | DD 2.0 @ 192 kbps - First channel
Язык : Russian
Default : Нет
Forced : Нет

Аудио #3
Идентификатор : 4
Формат : AC-3
Формат/Информация : Audio Coding 3
Расширение режима : CM (complete main)
Параметр Endianness формата : Big
Идентификатор кодека : A_AC3
Продолжительность : 2 ч. 13 м.
Вид битрейта : Постоянный
Битрейт : 640 Кбит/сек
Каналы : 6 каналов
Расположение каналов : Front: L C R, Side: L R, LFE
Частота : 48,0 КГц
Метод сжатия : С потерями
Размер потока : 611 Мбайт (8%)
Заголовок : AVO | DD 5.1 @ 640 kbps - A.Gavrilov
Язык : Russian
Default : Нет
Forced : Нет

Аудио #4
Идентификатор : 5
Формат : AC-3
Формат/Информация : Audio Coding 3
Расширение режима : CM (complete main)
Параметр Endianness формата : Big
Идентификатор кодека : A_AC3
Продолжительность : 2 ч. 13 м.
Вид битрейта : Постоянный
Битрейт : 448 Кбит/сек
Каналы : 6 каналов
Расположение каналов : Front: L C R, Side: L R, LFE
Частота : 48,0 КГц
Метод сжатия : С потерями
Размер потока : 428 Мбайт (5%)
Заголовок : AVO | DD 5.1 @ 448 kbps - Acolith
Язык : Russian
Default : Нет
Forced : Нет

Аудио #5
Идентификатор : 6
Формат : AC-3
Формат/Информация : Audio Coding 3
Расширение режима : CM (complete main)
Параметр Endianness формата : Big
Идентификатор кодека : A_AC3
Продолжительность : 2 ч. 13 м.
Вид битрейта : Постоянный
Битрейт : 448 Кбит/сек
Каналы : 6 каналов
Расположение каналов : Front: L C R, Side: L R, LFE
Частота : 48,0 КГц
Метод сжатия : С потерями
Размер потока : 428 Мбайт (5%)
Заголовок : Dub | DD 5.1 @ 448 kbps - Blu-ray CEE
Язык : Ukrainian
Default : Нет
Forced : Нет

Аудио #6
Идентификатор : 7
Формат : AC-3
Формат/Информация : Audio Coding 3
Расширение режима : CM (complete main)
Параметр Endianness формата : Big
Идентификатор кодека : A_AC3
Продолжительность : 2 ч. 13 м.
Вид битрейта : Постоянный
Битрейт : 640 Кбит/сек
Каналы : 6 каналов
Расположение каналов : Front: L C R, Side: L R, LFE
Частота : 48,0 КГц
Метод сжатия : С потерями
Размер потока : 611 Мбайт (8%)
Заголовок : Original | DD 5.1 @ 640 kbps
Язык : English
Default : Нет
Forced : Нет

Текст #1
Идентификатор : 8
Формат : UTF-8
Идентификатор кодека : S_TEXT/UTF8
Идентификатор кодека/Информация : UTF-8 Plain Text
Заголовок : Forced [Blu-ray]
Язык : Russian
Default : Да
Forced : Нет

Текст #2
Идентификатор : 9
Формат : UTF-8
Идентификатор кодека : S_TEXT/UTF8
Идентификатор кодека/Информация : UTF-8 Plain Text
Заголовок : Forced [Voronine]
Язык : Russian
Default : Нет
Forced : Нет

Текст #3
Идентификатор : 10
Формат : UTF-8
Идентификатор кодека : S_TEXT/UTF8
Идентификатор кодека/Информация : UTF-8 Plain Text
Заголовок : Blu-ray
Язык : Russian
Default : Нет
Forced : Нет

Текст #4
Идентификатор : 11
Формат : UTF-8
Идентификатор кодека : S_TEXT/UTF8
Идентификатор кодека/Информация : UTF-8 Plain Text
Заголовок : Full [Voronine]
Язык : Russian
Default : Нет
Forced : Нет

Текст #5
Идентификатор : 12
Формат : UTF-8
Идентификатор кодека : S_TEXT/UTF8
Идентификатор кодека/Информация : UTF-8 Plain Text
Заголовок : Forced
Язык : English
Default : Нет
Forced : Нет

Текст #6
Идентификатор : 13
Формат : UTF-8
Идентификатор кодека : S_TEXT/UTF8
Идентификатор кодека/Информация : UTF-8 Plain Text
Заголовок : Full
Язык : English
Default : Нет
Forced : Нет

Текст #7
Идентификатор : 14
Формат : UTF-8
Идентификатор кодека : S_TEXT/UTF8
Идентификатор кодека/Информация : UTF-8 Plain Text
Заголовок : SDH
Язык : English
Default : Нет
Forced : Нет

Текст #8
Идентификатор : 15
Формат : UTF-8
Идентификатор кодека : S_TEXT/UTF8
Идентификатор кодека/Информация : UTF-8 Plain Text
Заголовок : SDH-Colored
Язык : English
Default : Нет
Forced : Нет

Меню
00:00:00.000 : en:(01)00:00:00:000
00:05:17.399 : en:(02)00:05:17:399
00:13:31.268 : en:(03)00:13:31:268
00:21:10.769 : en:(04)00:21:10:769
00:26:32.337 : en:(05)00:26:32:337
00:37:42.802 : en:(06)00:37:42:802
00:45:23.554 : en:(07)00:45:23:554
00:49:30.257 : en:(08)00:49:30:257
00:56:53.867 : en:(09)00:56:53:867
01:02:40.547 : en:(10)01:02:40:547
01:09:43.051 : en:(11)01:09:43:051
01:15:19.639 : en:(12)01:15:19:639
01:23:06.354 : en:(13)01:23:06:354
01:28:54.578 : en:(14)01:28:54:578
01:35:56.832 : en:(15)01:35:56:832
01:38:35.951 : en:(16)01:38:35:951
01:43:12.519 : en:(17)01:43:12:519
01:49:42.823 : en:(18)01:49:42:823
01:57:19.573 : en:(19)01:57:19:573
02:07:00.654 : en:(20)02:07:00:654
02:13:33.587 : en:(21)02:13:33:587

pb.wtf



Скачать Команда «А» через торрент http://i78.fastpic.ru/big/2016/0519/f9/35fa561f7c34b769c41c17bd8df571f9.png Скачать фильм Команда «А» через торрент бесплантно в хорошем качестве Описание: Группа ветеранов войны в Ираке, несправедливо обвиненных в преступлении, пытается найти истинных виновников и вернуть себе ... 9.9 10 15
Info! Золотая раздача, скачанное не засчитывается.
Торрент: Зарегистрирован [2016-05-19 17:19] · скачан: 334 раз
Статус: √ проверено
Размер: 7.95 GB
Как cкачать? Как скачать Команда «А» через торрент | qTorrent

% Раздел Тема Автор DL S | L
Фильмы [HD 720p, 1080p] (Хороший звук DUB, MVO) [ 13.33 GB ] Команда «А» / The A-Team [2010 BDRip 1080p от _denis_100 / NNNB] DUB MVO 3xAVO VO + Original + Sub _denis_100 Скачать
1 | 0

28-11-2019 20:33  

Отключить всю рекламу на сайте

19-05-2016 20:24 Команда «А» Скачать торрент  

Класс фильм!pb.wtf



19-05-2016 23:07 Команда «А» Скачать торрент  

крут фильмpb.wtf



20-05-2016 07:55 Команда «А» Скачать торрент  


Такое ФУФЛО!!!pb.wtf



21-05-2016 06:38 Команда «А» Скачать торрент  

Смотреть можно с пивком и орешками pb.wtf



    Дорогой пользователь! Огромная просьба, поблагодарите релизера, оцените раздачу и оставьте свои комментарий, если Вы скачали Команда «А» через торрент бесплатно! Внесите свою лепту в развитие PiratBit!
    Комментировать посты могут только пользователи прошедшие не сложную регистрацию
    Показать сообщения:    

    Команда «А» через торрент
    Скачать бесплатно Команда «А»
    Команда «А» скачать торрент
    Команда «А» смотреть онлайн
    Cкачать фильм Команда «А» бесплатно
    Команда «А» скачать торрент в хорошем качестве
    Команда «А» смотреть онлайн бесплатно в хорошем качестве


    Вы не можете начинать темы
    Вы не можете отвечать на сообщения
    Вы не можете редактировать свои сообщения
    Вы не можете удалять свои сообщения
    Вы не можете голосовать в опросах
    Вы не можете прикреплять файлы к сообщениям
    Вы можете скачивать файлы