MEGA SALE -75% Borderlands 3 Super Deluxe всего за 550р. 180 руб. (супер цена). Внимание количество ограничено!!!

iTunes

1+1

iTunes

мы

iTunes

1

iTunes

Чернобыль

iTunes

Ральф против интернета

Лицензия

ПШазам

Лицензия

Игра престолов

Лицензия

30
pack

ВАЖНО

!!Акция!!

Alien_RageХит недели

RePack

Resident Evil 21

ИГРА 18+

pack

RePack

Metro:Exodus

!!Акция!!

Alien_Rage

RePack

fifa19

RePack

Assassins Creed: Odyssey

RePack

NEED FOR SPEED™ PAYBACK

3 сезон

9 сезон

Бесстыжие 9 сезон

Все сериалы

все сериалы на PB.wtf

RePack

FAR CRY 5
Ребята, катастрофически не хватает 1900р. для оплаты серверов за АВГУСТ (всвязи с блокировками трафик упал в 3 раза), 1-2р., выручайте.
  

Подрывники / Blown Away (Стивен Хопкинс ) [1994, боевик, триллер, драма, BDRip] Профессиональный (многоголосый) pb.wtf

Подрывники через торрент pb.wtf

Размер: 1.46 GB | Добавлен: 3 года 4 мес. назад | Торрент скачан:55 раз
Скачать  

20-05-2016 09:04 Подрывники Скачать торрент  

Подрывники / Blown Away
Год выпуска: 1994
Страна: США
Жанр: боевик, триллер, драма, криминал
слова
Продолжительность: 02:00:43
Перевод: Профессиональный (многоголосый)
Режиссер: Стивен Хопкинс
В ролях: Джефф Бриджес (James «Jimmy» Dove / Liam McGivney), Томми Ли Джонс (Ryan Gaerity), Сьюзи Эймис (Kate Dove), Ллойд Бриджес (Max O'Bannon), Форест Уитакер (Anthony Franklin), Стефи Лайнбург (Lizzy), Джон Финн (Capt. Fred Roarke), Кэйтлин Кларк (Rita), Кристофер де Они (Cortez), Лойд Кэтлетт (Bama), Рубен Сантьяго-Хадсон (Blanket), Люсинда Уайст (Nancy)
Описание:
Работающий в полиции сапер собирается жениться на прекрасной женщине, у которой есть замечательная дочка. Но его будущая жена не знает о прошлом своего мужа. А тот в молодости был ирландским террористом, специализирующимся на взрывах.
Когда-то он предотвратил взрыв, в результате которого могли погибнуть сотни людей, но невольно стал причиной гибели своих товарищей и любимой девушки, дочери человека, который увлек его ложным героизмом этой жестокой борьбы и научил всему, что можно знать о бомбах.
Сбежав из тюрьмы, учитель находит неблагодарного ученика и начинает мстить за предательство, убивая его коллег по работе, а в конце планируя убить его новую семью.
Рейтинг:

MPAA: R - Лицам до 17 лет обязательно присутствие взрослого
Качество: BDRip
Формат: AVI
Видео: XviD, 688x288 (2.40:1), 1532 kbps, 23,976 fps, 0,323 bpp
Аудио: AC3 / 2.0 / 48 kHz / 192 kbps / 16 bit

Код:

General
Complete name               : G:\Blown.Away.1994.BDRip.avi
Format                      : AVI
Format/Info                 : Audio Video Interleave
File size                   : 1.46 GiB
Duration                    : 2h 0mn
Overall bit rate            : 1 734 Kbps
Writing application         : VirtualDubMod 1.5.10.3 | www.virtualdub-fr.org || (build 2550/release)
Writing library             : VirtualDubMod build 2550/release

Video
ID                          : 0
Format                      : MPEG-4 Visual
Format profile              : Advanced Simple@L5
Format settings, BVOP       : 2
Format settings, QPel       : No
Format settings, GMC        : No warppoints
Format settings, Matrix     : Custom
Codec ID                    : XVID
Codec ID/Hint               : XviD
Duration                    : 2h 0mn
Bit rate                    : 1 533 Kbps
Width                       : 688 pixels
Height                      : 288 pixels
Display aspect ratio        : 2.40:1
Frame rate                  : 23.976 (23976/1000) fps
Color space                 : YUV
Chroma subsampling          : 4:2:0
Bit depth                   : 8 bits
Scan type                   : Progressive
Compression mode            : Lossy
Bits/(Pixel*Frame)          : 0.323
Stream size                 : 1.29 GiB (88%)
Writing library             : XviD 73

Audio
ID                          : 1
Format                      : AC-3
Format/Info                 : Audio Coding 3
Mode extension              : CM (complete main)
Format settings, Endianness : Big
Codec ID                    : 2000
Duration                    : 2h 0mn
Bit rate mode               : Constant
Bit rate                    : 192 Kbps
Channel(s)                  : 2 channels
Channel positions           : Front: L R
Sampling rate               : 48.0 KHz
Frame rate                  : 31.250 fps (1536 spf)
Compression mode            : Lossy
Stream size                 : 166 MiB (11%)
Alignment                   : Split accross interleaves
Interleave, duration        : 42 ms (1.00 video frame)
Interleave, preload duratio : 500 ms

pb.wtf



Скачать Подрывники через торрент http://pic1.kartinco.top/images/10/7eslz.jpg Скачать фильм Подрывники через торрент бесплантно в хорошем качестве Описание: Работающий в полиции сапер собирается жениться на прекрасной женщине, у которой есть замечательная дочка. Но его будущая жена не ... 10 10 3
Торрент: Зарегистрирован [2016-05-20 09:04] · скачан: 55 раз
Статус: √ проверено
Размер: 1.46 GB
Как cкачать? Как скачать Подрывники через торрент | qTorrent

% Раздел Тема Автор DL S | L
Фильмы [HD 720p, 1080p] (Хороший звук DUB, MVO) [ 16.89 GB ] Подрывники / Blown Away [1994 BDRip 1080p by msltel] DUB 2 x MVO DVO 4 x AVO msltel Скачать
1 | 0
Фильмы [HD 720p, 1080p] (Хороший звук DUB, MVO) [ 6.52 GB ] Подрывники / Blown Away [1994 BDRip 720p by msltel] DUB 2 x MVO DVO 4 x AVO msltel Скачать
1 | 0
Фильмы [HD 720p, 1080p] (Хороший звук DUB, MVO) [ 15.58 GB ] Подрывники / Blown Away [1994 BDRip 1080p by msltel] DUB 2 x MVO DVO 4 x AVO msltel Скачать
1 | 0
Фильмы до 2000 г. [ 2.16 GB ] Подрывники / Blown Away [1994 DVDRip] feldeger Скачать
1 | 0


>> Регистрируемся здесь <<






Отзывы и комментарии о схеме читаем и пишем здесь: ---> Отзывы и комментарии о схеме

Новые благодарочки в телеграм довольных пользователей:
скриншот   скриншот   скриншот   скриншот   скриншот

20-05-2016 10:40 Подрывники Скачать торрент  

"Сметённые огнём" он раньше вроде бы назывался судя по моей VHS.pb.wtf



20-05-2016 11:28 Подрывники Скачать торрент  

Saksus писал(а):

"Сметённые огнём" он раньше вроде бы назывался судя по моей VHS.

мэй би, на кинопоиске название "подрывники"pb.wtf



20-05-2016 11:59 Подрывники Скачать торрент  

Сам фильм то как,а то не помню смотрел или нет...pb.wtf



20-05-2016 12:27 Подрывники Скачать торрент  

bober100 писал(а):

Сам фильм то как,а то не помню смотрел или нет...

Только что досмотрел, мне понравился))
Томми Ли Джонс отлично сыгралpb.wtf



    Дорогой пользователь! Огромная просьба, поблагодарите релизера, оцените раздачу и оставьте свои комментарий, если Вы скачали Подрывники через торрент бесплатно! Внесите свою лепту в развитие PiratBit!
    Комментировать посты могут только пользователи прошедшие не сложную регистрацию
    Показать сообщения:    

    Подрывники через торрент
    Скачать бесплатно Подрывники
    Подрывники скачать торрент
    Подрывники смотреть онлайн
    Cкачать фильм Подрывники бесплатно
    Подрывники скачать торрент в хорошем качестве
    Подрывники смотреть онлайн бесплатно в хорошем качестве


    Вы не можете начинать темы
    Вы не можете отвечать на сообщения
    Вы не можете редактировать свои сообщения
    Вы не можете удалять свои сообщения
    Вы не можете голосовать в опросах
    Вы не можете прикреплять файлы к сообщениям
    Вы можете скачивать файлы