Ссылка на приватное зеркало нашего сайта всего за 1$. Внимание количество ограничено!!!

2 сезон

iTunes

1 сезон

1

iTunes

iTunes

iTunes

1 сезон

RePack

30

ИГРА 18+

pack

ВАЖНО

!!Акция!!

Alien_RageХит недели

RePack

MK11
pack

Забери бонус

RePack

jed

!!Акция!!

Alien_Rage

RePack

fifa19

RePack

Assassins Creed: Odyssey

RePack

NEED FOR SPEED™ PAYBACK

4 сезон

9 сезон

Бесстыжие 9 сезон

Все сериалы

все сериалы на PB.wtf

RePack

FAR CRY 5
  

Детсадовский полицейский 2 / Kindergarten Cop 2 (Дон Майкл Пол) [2016, комедия, BDRip 1080p, Дубляж] iTunes pb.wtf

Детсадовский полицейский 2 через торрент pb.wtf

Размер: 7.31 GB | Добавлен: 4 года 5 мес. назад | Торрент скачан:330 раз
Скачать  

20-05-2016 10:16 Детсадовский полицейский 2 Скачать торрент  


Детсадовский полицейский 2 / Kindergarten Cop 2


ИНФОРМАЦИЯ:
Год выпуска:2016
Страна: США
Жанр: комедия
Продолжительность: 01:40:06
Перевод: Дубляж - [Лицензия / iTunes]
Субтитры: английские,
Режиссер: Дон Майкл Пол

В Ролях:


Дольф Лундгрен (Agent Reed), Фиона Врум (Michelle), Сара Стрэйндж (Miss Sinclaire), Алекс Паунович (Zogu), Билл Беллами (Agent Sanders), Андре Трикоте (Valmir), Джоди Томпсон (Hot Mom), Рафаэль Алехандро (Cowboy), Дарла Тейлор (Olivia), Энид-Рэй Адамс (Jett's Mom), Ребекка Олсон (Katja), Джозиа Блэк (Jason Flaherty)

Описание:
Главный герой и его верный напарник должны найти съемный накопитель с секретными данными, касающимися федеральной программы защиты свидетелей, который, по случайному стечению обстоятельств, оказывается в руках прелестной воспитательницы детского сада. Но ситуацию усугубляет то, что за этой информацией параллельно охотятся албанские бандиты...

  • Мировая премьера:17 мая 2016

    ТЕХ.ДАННЫЕ:
    Качество: BDRip 1080p
    Формат: MKV
    Видео: AVC, 1920x1080 (16:9), 8347 kbps, 23,976 fps, 0,168 bpp
    Аудио №1: русский / AC3 / 5.1 / 48 kHz / 384 kbps / 16 bit ||
    Аудио №2: английский / DTS / 5.1 / 48 kHz / 1510 kbps / 24 bit
    Навигация по главам: есть


    General
    Unique ID : 182025110066704322995861799588082603387 (0x88F0C2D19A50C41F99603A7E7A29D57B)
    Complete name : E:\Раздачи\Детсадовский полицейский 2 - Kindergarten Cop 2 (2016)_BDRip.1080p.mkv
    Format : Matroska
    Format version : Version 4 / Version 2
    File size : 7.31 GiB
    Duration : 1h 40mn
    Overall bit rate : 10.4 Mbps
    Movie name : Kindergarten.Cop.2.2016.BDRip.1080p
    Encoded date : UTC 2016-05-20 00:29:54
    Writing application : mkvmerge v8.3.0 ('Over the Horizon') 64bit
    Writing library : libebml v1.3.1 + libmatroska v1.4.2

    Video
    ID : 1
    Format : AVC
    Format/Info : Advanced Video Codec
    Format profile : High@L4.1
    Format settings, CABAC : Yes
    Format settings, ReFrames : 4 frames
    Codec ID : V_MPEG4/ISO/AVC
    Duration : 1h 40mn
    Bit rate : 8 347 Kbps
    Width : 1 920 pixels
    Height : 1 080 pixels
    Display aspect ratio : 16:9
    Frame rate : 23.976 fps
    Color space : YUV
    Chroma subsampling : 4:2:0
    Bit depth : 8 bits
    Scan type : Progressive
    Bits/(Pixel*Frame) : 0.168
    Stream size : 5.84 GiB (80%)
    Writing library : x264 core 148 r2692 64f4e24
    Encoding settings : cabac=1 / ref=4 / deblock=1:-3:-3 / analyse=0x3:0x133 / me=umh / subme=8 / psy=1 / psy_rd=1.00:0.15 / mixed_ref=1 / me_range=16 / chroma_me=1 / trellis=1 / 8x8dct=1 / cqm=0 / deadzone=21,11 / fast_pskip=0 / chroma_qp_offset=-3 / threads=12 / lookahead_threads=2 / sliced_threads=0 / nr=0 / decimate=1 / interlaced=0 / bluray_compat=0 / constrained_intra=0 / bframes=3 / b_pyramid=2 / b_adapt=2 / b_bias=0 / direct=3 / weightb=1 / open_gop=0 / weightp=2 / keyint=240 / keyint_min=24 / scenecut=40 / intra_refresh=0 / rc_lookahead=50 / rc=crf / mbtree=1 / crf=20.0 / qcomp=0.60 / qpmin=0 / qpmax=69 / qpstep=4 / ip_ratio=1.40 / aq=1:1.00
    Language : English
    Default : Yes
    Forced : No

    Audio #1
    ID : 2
    Format : AC-3
    Format/Info : Audio Coding 3
    Mode extension : CM (complete main)
    Codec ID : A_AC3
    Duration : 1h 40mn
    Bit rate mode : Constant
    Bit rate : 384 Kbps
    Channel(s) : 6 channels
    Channel positions : Front: L C R, Side: L R, LFE
    Sampling rate : 48.0 KHz
    Bit depth : 16 bits
    Compression mode : Lossy
    Stream size : 275 MiB (4%)
    Title : R5
    Language : Russian
    Default : Yes
    Forced : No

    Audio #2
    ID : 3
    Format : DTS
    Format/Info : Digital Theater Systems
    Codec ID : A_DTS
    Duration : 1h 40mn
    Bit rate mode : Constant
    Bit rate : 1 510 Kbps
    Channel(s) : 6 channels
    Channel positions : Front: L C R, Side: L R, LFE
    Sampling rate : 48.0 KHz
    Bit depth : 24 bits
    Compression mode : Lossy
    Stream size : 1.06 GiB (14%)
    Language : English
    Default : No
    Forced : No

    Text
    ID : 4
    Format : UTF-8
    Codec ID : S_TEXT/UTF8
    Codec ID/Info : UTF-8 Plain Text
    Language : English
    Default : No
    Forced : No

    Menu
    00:00:00.000 : en:00:00:00.000
    00:07:32.535 : en:00:07:32.535
    00:14:16.564 : en:00:14:16.564
    00:22:52.830 : en:00:22:52.830
    00:34:34.698 : en:00:34:34.698
    00:43:36.614 : en:00:43:36.614
    00:53:14.233 : en:00:53:14.233
    01:00:23.787 : en:01:00:23.787
    01:10:18.381 : en:01:10:18.381
    01:18:36.128 : en:01:18:36.128
    01:26:38.026 : en:01:26:38.026
    01:34:38.464 : en:01:34:38.464
    Скриншоты:

    © Оформление by .::Ворон::.
    pb.wtf



  • Скачать Детсадовский полицейский 2 через торрент http://pic.kartinco.top/images/6/ordi9.jpg Скачать фильм Детсадовский полицейский 2 через торрент бесплантно в хорошем качестве Описание: Главный герой и его верный напарник должны найти съемный накопитель с секретными данными, касающимися федеральной программы ... 9.9 10 12
    Торрент: Зарегистрирован [2016-05-20 10:16] · скачан: 330 раз
    Статус: √ проверено
    Размер: 7.31 GB
    Как cкачать? Как скачать Детсадовский полицейский 2 через торрент | qTorrent

    % Раздел Тема Автор DL S | L
    Фильмы 2016 [DVDrip, WEB-DLRip, HDrip] (DUB, MVO) [ 746 MB ] Детсадовский полицейский 2 / Kindergarten Cop 2 [2016 HDRip ] Sherif Скачать
    1 | 0
    Фильмы 2016 [DVDrip, WEB-DLRip, HDrip] (DUB, MVO) [ 1.46 GB ] Детсадовский полицейский 2 / Kindergarten Cop 2 [2016 HDRip ] Ворон Скачать
    1 | 0

    28-11-2019 20:33  

    Отключить всю рекламу на сайте

    20-05-2016 10:16 Детсадовский полицейский 2 Скачать торрент  

    Наш канал на ЮТУБЕ подписывайтесь пираты)=
    https://www.youtube.com/channel/UCVOgohOugtNuCM9aXr9KVeg

    pb.wtf



    20-05-2016 10:37 Детсадовский полицейский 2 Скачать торрент  

    1й часть было не очень - но игра Арни всё исправила - но тут... ну... сами смотрите... авось понравится...pb.wtf



    20-05-2016 14:34 Детсадовский полицейский 2 Скачать торрент  

    Увидев то как эти дети кривляются на постере, лицезреть это, пропало желание...pb.wtf



      Дорогой пользователь! Огромная просьба, поблагодарите релизера, оцените раздачу и оставьте свои комментарий, если Вы скачали Детсадовский полицейский 2 через торрент бесплатно! Внесите свою лепту в развитие PiratBit!
      Комментировать посты могут только пользователи прошедшие не сложную регистрацию
      Показать сообщения:    

      Детсадовский полицейский 2 через торрент
      Скачать бесплатно Детсадовский полицейский 2
      Детсадовский полицейский 2 скачать торрент
      Детсадовский полицейский 2 смотреть онлайн
      Cкачать фильм Детсадовский полицейский 2 бесплатно
      Детсадовский полицейский 2 скачать торрент в хорошем качестве
      Детсадовский полицейский 2 смотреть онлайн бесплатно в хорошем качестве


      Вы не можете начинать темы
      Вы не можете отвечать на сообщения
      Вы не можете редактировать свои сообщения
      Вы не можете удалять свои сообщения
      Вы не можете голосовать в опросах
      Вы не можете прикреплять файлы к сообщениям
      Вы можете скачивать файлы