Ссылка на приватное зеркало нашего сайта всего за 1$. Внимание количество ограничено!!!

2 сезон

iTunes

1 сезон

1

2 сезон

2 сезон

iTunes

1 сезон

RePack

30

Новинка

ВАЖНО

ИГРА 18+

pack

RePack

MK11
pack

Забери бонус

RePack

jed

!!Акция!!

Alien_Rage

RePack

fifa19

RePack

Assassins Creed: Odyssey

RePack

NEED FOR SPEED™ PAYBACK

4 сезон

9 сезон

Бесстыжие 9 сезон

Все сериалы

все сериалы на PB.wtf

RePack

FAR CRY 5
  

Мушкетеры / The Musketeers / Сезон: 3 / Серии 1-10 из 10 (Энди Хэй / Andy Hay, Николас Рентон / Nicholas Renton, Фэррен Блэкберн / Farren Blackburn) [2016, Великобритания, драма, приключения, WEB-DLRip-AVC] MVO [BaibaKo] pb.wtf

Мушкетеры через торрент pb.wtf

Размер: 10.82 GB | Добавлен: 4 года 6 мес. назад | Торрент скачан:114 раз
Скачать  

20-05-2016 12:00 Мушкетеры Скачать торрент  


Мушкетеры / The Musketeers



  • Год выпуска: 2016
  • Страна: Великобритания
  • Жанр: драма, приключения
  • Продолжительность: 00:55:10 (Серия)
  • Перевод: Профессиональный многоголосый закадровый [BaibaKo]
  • Примечание: Рекламный ролик вырезан!!
  • Режиссер: Энди Хэй / Andy Hay, Николас Рентон / Nicholas Renton, Фэррен Блэкберн / Farren Blackburn
  • В ролях:

    Люк Паскуалино (D'Artagnan), Том Бёрк (Athos), Ховард Чарльз (Porthos), Сантьяго Кабрера (Aramis), Хьюго Спир (Treville), Райан Гейдж (King Louis), Тамла Кари (Constance), Александра Доулинг (Queen Anne), Мэйми МакКой (Milady), Питер Капальди (Cardinal Richelieu), Марк Уоррен (Rochefort), Мэттью МакНалти (Lucien Grimaud)


  • Мушкетеры собираются на улицах Парижа в семнадцатом веке, где закон и порядок являются больше идеей, чем реальностью. Личные телохранители короля Людовика XIII, Атос, Арамис и Портос решительно стоят за социальную справедливость, за честь, за доблесть, так же за любовь - и за острые ощущения.
  • Рейтинг:



  • Качество: WEB-DLRip-AVC
  • Формат: :MPEG-4
  • Видео кодек: AVC
  • Аудио кодек: AC3
  • Видео: 1024x576 (16:9), 2089 kbps, 25 fps, 0,142 bpp
  • Аудио №1: русский / 2.0 / 48 kHz / 384 kbps / 16 bit |[BaibaKo]|
  • Аудио №2: английский / 2.0 / 48 kHz / 384 kbps / 16 bit
  • Релиз от: GEKADOL

    Код:

    General
    Complete name                            : H:\Мушкетёры (Финал)\The.Musketeers.s03e05.WEB-DLRip-AVC.Rus.Eng.BaibaKo.tv.mp4
    Format                                   : MPEG-4
    Format profile                           : Base Media
    Codec ID                                 : isom
    File size                                : 1.10 GiB
    Duration                                 : 55mn 10s
    Overall bit rate                         : 2 863 Kbps
    Writing application                      : XviD4PSP 7.0.261 DAILY
    hdvd                                     : 1
    iTunMOVI                                 : <?xml version="1.0" encoding="UTF-8"?> / <!DOCTYPE plist PUBLIC "-//Apple//DTD PLIST 1.0//EN" "http://www.apple.com/DTDs/PropertyList-1.0.dtd"> / <plist version="1.0"> / <dict> /     <key>encoding_info</key> /     <array> /         <dict> /             <key>name</key> /             <string>MATROSKA</string> /         </dict> /         <dict> /             <key>name</key> /             <string><![CDATA[WEBM > MP4 / H264 > X264 CBR 2200kbps HQ / AC3 > AC3 CBR 384kbps Custom / AC3 > AC3 CBR 384kbps Custom]]></string> /         </dict> /     </array> / </dict> / </plist>

    Video
    ID                                       : 1
    Format                                   : AVC
    Format/Info                              : Advanced Video Codec
    Format profile                           : High@L3.2
    Format settings, CABAC                   : Yes
    Format settings, ReFrames                : 4 frames
    Codec ID                                 : avc1
    Codec ID/Info                            : Advanced Video Coding
    Duration                                 : 55mn 10s
    Bit rate                                 : 2 090 Kbps
    Nominal bit rate                         : 2 200 Kbps
    Width                                    : 1 024 pixels
    Height                                   : 576 pixels
    Display aspect ratio                     : 16:9
    Frame rate mode                          : Variable
    Frame rate                               : 25.000 fps
    Minimum frame rate                       : 16.667 fps
    Maximum frame rate                       : 50.000 fps
    Color space                              : YUV
    Chroma subsampling                       : 4:2:0
    Bit depth                                : 8 bits
    Scan type                                : Progressive
    Bits/(Pixel*Frame)                       : 0.142
    Stream size                              : 825 MiB (73%)
    Writing library                          : x264 core 148 r2694M 3b70645
    Encoding settings                        : cabac=1 / ref=3 / deblock=1:-1:-1 / analyse=0x3:0x133 / me=hex / subme=7 / psy=1 / psy_rd=1.00:0.20 / mixed_ref=1 / me_range=16 / chroma_me=1 / trellis=1 / 8x8dct=1 / cqm=0 / deadzone=21,11 / fast_pskip=1 / chroma_qp_offset=-3 / threads=5 / lookahead_threads=1 / sliced_threads=0 / nr=0 / decimate=1 / interlaced=0 / bluray_compat=0 / constrained_intra=0 / bframes=3 / b_pyramid=2 / b_adapt=2 / b_bias=0 / direct=3 / weightb=1 / open_gop=0 / weightp=2 / keyint=250 / keyint_min=25 / scenecut=40 / intra_refresh=0 / rc_lookahead=40 / rc=cbr / mbtree=1 / bitrate=2200 / ratetol=1.0 / qcomp=0.60 / qpmin=0 / qpmax=69 / qpstep=4 / vbv_maxrate=2200 / vbv_bufsize=2200 / nal_hrd=none / filler=0 / ip_ratio=1.40 / aq=1:1.00

    Audio #1
    ID                                       : 2
    Format                                   : AC-3
    Format/Info                              : Audio Coding 3
    Mode extension                           : CM (complete main)
    Codec ID                                 : ac-3
    Duration                                 : 55mn 10s
    Bit rate mode                            : Constant
    Bit rate                                 : 384 Kbps
    Channel(s)                               : 2 channels
    Channel positions                        : Front: L R
    Sampling rate                            : 48.0 KHz
    Bit depth                                : 16 bits
    Compression mode                         : Lossy
    Stream size                              : 152 MiB (13%)
    Language                                 : Russian

    Audio #2
    ID                                       : 3
    Format                                   : AC-3
    Format/Info                              : Audio Coding 3
    Mode extension                           : CM (complete main)
    Codec ID                                 : ac-3
    Duration                                 : 55mn 10s
    Bit rate mode                            : Constant
    Bit rate                                 : 384 Kbps
    Channel(s)                               : 2 channels
    Channel positions                        : Front: L R
    Sampling rate                            : 48.0 KHz
    Bit depth                                : 16 bits
    Compression mode                         : Lossy
    Stream size                              : 152 MiB (13%)
    Language                                 : English




    Скриншоты:



    pb.wtf



  • Скачать Мушкетеры через торрент http://pic1.kartinco.top/images/10/fr45r.jpg Скачать фильм Мушкетеры через торрент бесплантно в хорошем качестве qw.png Мушкетеры собираются на улицах Парижа в семнадцатом веке, где закон и порядок являются больше идеей, чем реальностью. Личные ... 9 10 9
    Info! Золотая раздача, скачанное не засчитывается.
    Торрент: Зарегистрирован [2016-05-20 12:00] · скачан: 114 раз
    Статус: √ проверено
    Размер: 10.82 GB
    Как cкачать? Как скачать Мушкетеры через торрент | qTorrent

    28-11-2019 20:33  

    Отключить всю рекламу на сайте

    20-05-2016 12:25 Мушкетеры Скачать торрент  

    Уже весь сезон,а от Лоста 2 серии только они там что .......pb.wtf



    20-05-2016 12:38 Мушкетеры Скачать торрент  

    zra писал(а):

    Уже весь сезон,а от Лоста 2 серии только они там что .......

    Все серии полные версии)pb.wtf



      Дорогой пользователь! Огромная просьба, поблагодарите релизера, оцените раздачу и оставьте свои комментарий, если Вы скачали Мушкетеры через торрент бесплатно! Внесите свою лепту в развитие PiratBit!
      Комментировать посты могут только пользователи прошедшие не сложную регистрацию
      Показать сообщения:    

      Мушкетеры через торрент
      Скачать бесплатно Мушкетеры
      Мушкетеры скачать торрент
      Мушкетеры смотреть онлайн
      Cкачать фильм Мушкетеры бесплатно
      Мушкетеры скачать торрент в хорошем качестве
      Мушкетеры смотреть онлайн бесплатно в хорошем качестве


      Вы не можете начинать темы
      Вы не можете отвечать на сообщения
      Вы не можете редактировать свои сообщения
      Вы не можете удалять свои сообщения
      Вы не можете голосовать в опросах
      Вы не можете прикреплять файлы к сообщениям
      Вы можете скачивать файлы