1 сезон

1 сезон

iTunes

1

КиноПоиск HD

Кинопоиск HD

iTunes

13

1 сезон

RePack

30

Ultimate

ВАЖНО

ИГРА 18+

pack

RePack

MK11
pack

Легкие деньги

RePack

jed

RePack

fifa19

RePack

RDR2

RePack

NEED FOR SPEED™ PAYBACK

4 сезон

9 сезон

Бесстыжие 9 сезон

Все сериалы

все сериалы на PB.wtf

RePack

FAR CRY 5
  
Magnet ссылка

Вердикт за деньги / Runaway Jury (Гэри Фледер ) [2003, триллер, драма, BDRip-AVC от _denis_100 / NNNB] DUB, AVO + Original + Sub (Rus,Eng) pb.wtf

Вердикт за деньги через торрент pb.wtf

Размер: 2.91 GB | Добавлен: 4 года 10 мес. назад | Торрент скачан:39 раз
Скачать  

20-05-2016 12:08 Вердикт за деньги Скачать торрент  

Вердикт за деньги / Runaway Jury
«Правда. Молчание. Убийство. За деньги можно всё»


Год выпуска: 2003
Страна: США
Жанр: триллер, драма
Продолжительность: 02:07:33
Перевод: Дублированный, Авторский одноголосый
Субтитры: русские, английские
Режиссер: Гэри Фледер
В ролях: Джон Кьюсак , Джин Хэкмен , Дастин Хоффман , Рэйчел Вайс , Брюс Дэвисон , Брюс МакГилл , Джереми Пивен , Ник Сирси , Стенли Андерсон , Клифф Кёртис , Нестор Серрано , Лиленд Орсер
Описание:
Один из присяжных во время процесса над производителем оружия объединяет усилия с прелестной девушкой, чтобы получить контроль над всеми присяжными.
Ставки очень высоки, т. к. процесс «тянет» на несколько миллионов долларов, поэтому адвокат сталкивается с противодействием присяжного, который не остановится ни перед чем, чтобы решение присяжных осталось в силе...

PG-13 - Детям до 13 лет просмотр не желателен
Качество: BDRip-AVC
Контейнер (Расширение): MKV
Видео: 960x408, 1920 Кбит/сек, 23,976 кадр/сек, 0,204 Бит/[Пиксели*Кадры]
Аудио №1: русский / AC3 / 5.1 / 48 kHz / 448 kbps / 16 bit |Дублированный|
Аудио №2: русский / AC3 / 5.1 / 48 kHz / 448 kbps / 16 bit |Авторский одноголосый, Живов|
Аудио №3: английский / AC3 / 5.1 / 48 kHz / 448 kbps / 16 bit
Навигация по главам(Чаптеры): естьАвтор рипа: Сообщество:
Авторский перевод Юрия Живого отдельно:

Код:

Format                                   : Matroska
Format version                           : Version 2
File size                                : 2.91 GiB
Duration                                 : 2h 7mn
Overall bit rate                         : 3 265 Kbps
Movie name                               : Verdikt.za.dengi.(2003).BDRip-AVC.[denis100]
Encoded date                             : UTC 2016-05-20 11:42:36
Writing application                      : mkvmerge v5.8.0 ('No Sleep / Pillow') built on Sep  2 2012 15:37:04
Writing library                          : libebml v1.2.3 + libmatroska v1.3.0

Video
ID                                       : 1
Format                                   : AVC
Format/Info                              : Advanced Video Codec
Format profile                           : High@L4.1
Format settings, CABAC                   : Yes
Format settings, ReFrames                : 11 frames
Codec ID                                 : V_MPEG4/ISO/AVC
Duration                                 : 2h 7mn
Bit rate                                 : 1 920 Kbps
Width                                    : 960 pixels
Height                                   : 408 pixels
Display aspect ratio                     : 2.35:1
Frame rate                               : 23.976 fps
Color space                              : YUV
Chroma subsampling                       : 4:2:0
Bit depth                                : 8 bits
Scan type                                : Progressive
Bits/(Pixel*Frame)                       : 0.204
Stream size                              : 1.65 GiB (57%)
Title                                    : Verdikt.za.dengi.(2003).BDRip-AVC.[denis100]
Writing library                          : x264 core 148 r2692 64f4e24
Encoding settings                        : cabac=1 / ref=11 / deblock=1:-3:-3 / analyse=0x3:0x133 / me=umh / subme=11 / psy=1 / psy_rd=1.00:0.10 / mixed_ref=1 / me_range=32 / chroma_me=1 / trellis=2 / 8x8dct=1 / cqm=0 / deadzone=21,11 / fast_pskip=0 / chroma_qp_offset=-3 / threads=6 / lookahead_threads=1 / sliced_threads=0 / nr=0 / decimate=1 / interlaced=0 / bluray_compat=0 / constrained_intra=0 / bframes=12 / b_pyramid=2 / b_adapt=2 / b_bias=0 / direct=3 / weightb=1 / open_gop=0 / weightp=2 / keyint=240 / keyint_min=23 / scenecut=40 / intra_refresh=0 / rc=2pass / mbtree=0 / bitrate=1920 / ratetol=1.0 / qcomp=0.60 / qpmin=0 / qpmax=69 / qpstep=4 / cplxblur=20.0 / qblur=0.5 / ip_ratio=1.40 / pb_ratio=1.30 / aq=2:0.80
Language                                 : English
Default                                  : Yes
Forced                                   : No

Audio #1
ID                                       : 2
Format                                   : AC-3
Format/Info                              : Audio Coding 3
Mode extension                           : CM (complete main)
Codec ID                                 : A_AC3
Duration                                 : 2h 7mn
Bit rate mode                            : Constant
Bit rate                                 : 448 Kbps
Channel(s)                               : 6 channels
Channel positions                        : Front: L C R, Side: L R, LFE
Sampling rate                            : 48.0 KHz
Bit depth                                : 16 bits
Compression mode                         : Lossy
Stream size                              : 409 MiB (14%)
Title                                    : Дубляж
Language                                 : Russian
Default                                  : Yes
Forced                                   : No

Audio #2
ID                                       : 3
Format                                   : AC-3
Format/Info                              : Audio Coding 3
Mode extension                           : CM (complete main)
Codec ID                                 : A_AC3
Duration                                 : 2h 7mn
Bit rate mode                            : Constant
Bit rate                                 : 448 Kbps
Channel(s)                               : 6 channels
Channel positions                        : Front: L C R, Side: L R, LFE
Sampling rate                            : 48.0 KHz
Bit depth                                : 16 bits
Compression mode                         : Lossy
Stream size                              : 409 MiB (14%)
Title                                    : AVO, Живов
Language                                 : Russian
Default                                  : No
Forced                                   : No

Audio #3
ID                                       : 4
Format                                   : AC-3
Format/Info                              : Audio Coding 3
Mode extension                           : CM (complete main)
Codec ID                                 : A_AC3
Duration                                 : 2h 7mn
Bit rate mode                            : Constant
Bit rate                                 : 448 Kbps
Channel(s)                               : 6 channels
Channel positions                        : Front: L C R, Side: L R, LFE
Sampling rate                            : 48.0 KHz
Bit depth                                : 16 bits
Compression mode                         : Lossy
Stream size                              : 409 MiB (14%)
Language                                 : English
Default                                  : No
Forced                                   : No

Text #1
ID                                       : 5
Format                                   : UTF-8
Codec ID                                 : S_TEXT/UTF8
Codec ID/Info                            : UTF-8 Plain Text
Language                                 : Russian
Default                                  : No
Forced                                   : No

Text #2
ID                                       : 6
Format                                   : UTF-8
Codec ID                                 : S_TEXT/UTF8
Codec ID/Info                            : UTF-8 Plain Text
Language                                 : English
Default                                  : No
Forced                                   : No

Menu
00:00:00.000                             : en:00:00:00.000
00:03:21.492                             : en:00:03:21.492
00:09:01.916                             : en:00:09:01.916
00:11:18.552                             : en:00:11:18.552
00:13:46.784                             : en:00:13:46.784
00:18:06.710                             : en:00:18:06.710
00:24:50.864                             : en:00:24:50.864
00:28:55.859                             : en:00:28:55.859
00:37:04.013                             : en:00:37:04.013
00:39:17.355                             : en:00:39:17.355
00:46:40.756                             : en:00:46:40.756
00:49:08.070                             : en:00:49:08.070
00:54:10.413                             : en:00:54:10.413
00:59:14.259                             : en:00:59:14.259
01:05:39.977                             : en:01:05:39.977
01:15:51.964                             : en:01:15:51.964
01:19:27.971                             : en:01:19:27.971
01:25:13.399                             : en:01:25:13.399
01:30:59.787                             : en:01:30:59.787
01:32:16.948                             : en:01:32:16.948
01:36:02.840                             : en:01:36:02.840
01:43:11.310                             : en:01:43:11.310
01:46:48.735                             : en:01:46:48.735
01:50:47.182                             : en:01:50:47.182
01:55:23.708                             : en:01:55:23.708
01:56:19.681                             : en:01:56:19.681
01:59:03.344                             : en:01:59:03.344
02:03:03.209                             : en:02:03:03.209

pb.wtf



Скачать Вердикт за деньги через торрент http://i80.fastpic.ru/big/2016/0520/58/7c832e5bb3014ad6326b9752cfff9358.png Скачать фильм Вердикт за деньги через торрент бесплантно в хорошем качестве Описание:Один из присяжных во время процесса над производителем оружия объединяет усилия с прелестной девушкой, чтобы получить контроль над ... 10 10 3
Info! Золотая раздача, скачанное не засчитывается.
Торрент: Зарегистрирован [2016-05-20 12:08] · скачан: 39 раз
Статус: √ проверено
Размер: 2.91 GB
Как cкачать? Как скачать Вердикт за деньги через торрент | UTorrent

% Раздел Тема Автор DL S | L
Фильмы (HD 720p, 1080p) (48-60 fps) [ 5.1 GB ] Вердикт за деньги / Runaway Jury [2003 WEB-DLRip 720p / 60 FPS ] от R.G. HD-Films slaventi-69 Скачать
5 | 0
Фильмы (Blu-ray, BD-Remux, HDDVD) [ 41.17 GB ] Вердикт за деньги / Runaway Jury [2003 Blu-ray EUR 1080p] DUB bober100 Скачать
1 | 0
Фильмы с авторской озвучкой [ 2.07 GB ] Вердикт за деньги / Сбежавший присяжный / Runaway Jury [2003 BDRip] 2x[AVO] killermax2013 Скачать
1 | 0
Фильмы [HD 720p, 1080p] (Хороший звук DUB, MVO) [ 5.75 GB ] Вердикт за деньги / Runaway Jury [2003 BDRip 720p от _denis_100 / NNNB] DUB AVO + Original + Sub _denis_100 Скачать
1 | 0

28-11-2019 20:33  

Отключить всю рекламу на сайте

    Дорогой пользователь! Огромная просьба, поблагодарите релизера, оцените раздачу и оставьте свои комментарий, если Вы скачали Вердикт за деньги через торрент бесплатно! Внесите свою лепту в развитие PiratBit!
    Комментировать посты могут только пользователи прошедшие не сложную регистрацию
    Показать сообщения:    

    Вердикт за деньги через торрент
    Скачать бесплатно Вердикт за деньги
    Вердикт за деньги скачать торрент
    Вердикт за деньги смотреть онлайн
    Cкачать фильм Вердикт за деньги бесплатно
    Вердикт за деньги скачать торрент в хорошем качестве
    Вердикт за деньги смотреть онлайн бесплатно в хорошем качестве


    Вы не можете начинать темы
    Вы не можете отвечать на сообщения
    Вы не можете редактировать свои сообщения
    Вы не можете удалять свои сообщения
    Вы не можете голосовать в опросах
    Вы не можете прикреплять файлы к сообщениям
    Вы можете скачивать файлы