Всегда рабочее зеркало без VPN и Proxy просто перед .vidak.icu напиши любое слово или цифру, Пример http://py26.vidak.icu

MVO

Лицензия

1 сезон

1

1 сезон

iTunes

1 сезон

13

1 сезон

Deluxe

pack

Рекомендуем

Пиратка

30

ВАЖНО

RePack

MK11

RePack

jed

RePack

fifa19

RePack

RDR2

RePack

NEED FOR SPEED™ PAYBACK

Кинопоиск HD

6 сезон

 Острые козырьки 6 сезон

Все сериалы

все сериалы на PB.wtf

RePack

FAR CRY 5
  
Magnet ссылка

Вудлон / Woodlawn (Эндрю Эрвин / Andrew Erwin, Эрвин Бразерс / The Erwin Brothers) [2015, драма, спорт, BDRip-AVC от potroks] MVO [iTunes] pb.wtf

Вудлон через торрент pb.wtf

Размер: 1.46 GB | Добавлен: 6 лет 1 мес. назад | Торрент скачан:73 раза
Смотреть онлайн Вудлон | Скачать    Ребята, помогите собрать деньги на оплату серверов!!!

20-05-2016 13:15 Вудлон Скачать торрент  

Вудлон / Woodlawn
«One Hope. One Truth. One Way»
Год выпуска: 2015
Страна: США / Cresent City Pictures, Red Sky Studios
Жанр: драма, спорт
Продолжительность: 02:03:57
Перевод: Профессиональный (многоголосый) [iTunes]
Субтитры: английские (Full), английские (SDH (x2)), английские (SDH-Colored)
Навигация по главам: есть
Режиссер: Эндрю Эрвин / Andrew Erwin, Эрвин Бразерс / The Erwin Brothers
В ролях:

Шон Эстин (Hank), Ник Бишоп (Tandy Gerelds), Калеб Кастилло (Tony Nathan), Шерри Шеперд (Momma Nathan), Джон Войт (Paul Bryant), Джой Брансон (Johnnie), Лэнс Э. Николс (Junior), Девон Франклин (Preacher), Си Томас Хауэлл (Shorty), Кевин Сайзмор (Jerry Stearns), Бретт Райс (Whitehurst), Вирджиния Уильямс (Debbie)
Описание: Одаренный молодой футболист, опираясь на свой талант и веру, борется с этнической нетерпимостью, как на поле, так и вне его.

Качество: BDRip-AVC
Формат: MKV
Видео кодек: AVC
Аудио кодек: AC3
Видео: 912x380 (2.40:1), 1495 kbps, 23,976 fps, 0,180 bit/pixel
Аудио: русский / AC3 / 2.0 / 48 kHz / 192 kbps / 16 bit

Код:

Общее
Уникальный идентификатор : 190802942557576188088437957413543854129 (0x8F8B4F5FC1C00630B7852D5E0CE7C031)
Полное имя : Vudlon.2015.RUS.BDRip.x264.-HELLYWOOD.mkv
Формат : Matroska
Версия формата : Version 4 / Version 2
Размер файла : 1,46 Гбайт
Продолжительность : 2 ч. 3 м.
Общий поток : 1686 Кбит/сек
Название фильма : Woodlawn (2015)
Дата кодирования : UTC 2016-05-08 20:57:34
Программа кодирования : mkvmerge v5.9.0 ('On The Loose') built on Dec 15 2012 16:39:58
Библиотека кодирования : libebml v1.3.0 + libmatroska v1.4.0

Видео
Идентификатор : 1
Формат : AVC
Формат/Информация : Advanced Video Codec
Профиль формата : High@L4.1
Параметр CABAC формата : Да
Параметр ReFrames формата : 12 кадров
Идентификатор кодека : V_MPEG4/ISO/AVC
Продолжительность : 2 ч. 3 м.
Битрейт : 1495 Кбит/сек
Ширина : 912 пикселей
Высота : 380 пикселей
Соотношение сторон : 2,40:1
Режим частоты кадров : Постоянный
Частота кадров : 23,976 кадра/сек
Цветовое пространство : YUV
Субдискретизация насыщенности : 4:2:0
Битовая глубина : 8 бит
Тип развёртки : Прогрессивная
Бит/(Пиксели*Кадры) : 0.180
Размер потока : 1,26 Гбайт (87%)
Заголовок : potroks
Библиотека кодирования : x264 core 146 r2538 121396c
Настройки программы : cabac=1 / ref=12 / deblock=1:-2:-2 / analyse=0x3:0x113 / me=umh / subme=11 / psy=1 / psy_rd=1.00:0.00 / mixed_ref=1 / me_range=48 / chroma_me=1 / trellis=2 / 8x8dct=1 / cqm=0 / deadzone=21,11 / fast_pskip=0 / chroma_qp_offset=-2 / threads=9 / lookahead_threads=2 / sliced_threads=0 / nr=0 / decimate=1 / interlaced=0 / bluray_compat=0 / constrained_intra=0 / bframes=13 / b_pyramid=2 / b_adapt=2 / b_bias=0 / direct=3 / weightb=1 / open_gop=0 / weightp=2 / keyint=240 / keyint_min=23 / scenecut=40 / intra_refresh=0 / rc_lookahead=60 / rc=2pass / mbtree=0 / bitrate=1495 / ratetol=1.0 / qcomp=0.70 / qpmin=0 / qpmax=69 / qpstep=4 / cplxblur=20.0 / qblur=0.5 / vbv_maxrate=14000 / vbv_bufsize=14000 / nal_hrd=none / filler=0 / ip_ratio=1.35 / pb_ratio=1.25 / aq=1:0.80
Язык : English
Default : Да
Forced : Нет

Аудио
Идентификатор : 2
Формат : AC-3
Формат/Информация : Audio Coding 3
Расширение режима : CM (complete main)
Параметр Endianness формата : Big
Идентификатор кодека : A_AC3
Продолжительность : 2 ч. 3 м.
Вид битрейта : Постоянный
Битрейт : 192 Кбит/сек
Каналы : 2 канала
Расположение каналов : Front: L R
Частота : 48,0 КГц
Частота кадров : 31,250 кадров/сек (1536 spf)
Метод сжатия : С потерями
Размер потока : 170 Мбайт (11%)
Заголовок : MVO | DD 2.0 @ 192 kbps - iTunes
Язык : Russian
Default : Да
Forced : Нет

Текст #1
Идентификатор : 3
Формат : UTF-8
Идентификатор кодека : S_TEXT/UTF8
Идентификатор кодека/Информация : UTF-8 Plain Text
Заголовок : Full
Язык : English
Default : Нет
Forced : Нет

Текст #2
Идентификатор : 4
Формат : UTF-8
Идентификатор кодека : S_TEXT/UTF8
Идентификатор кодека/Информация : UTF-8 Plain Text
Заголовок : SDH1
Язык : English
Default : Нет
Forced : Нет

Текст #3
Идентификатор : 5
Формат : UTF-8
Идентификатор кодека : S_TEXT/UTF8
Идентификатор кодека/Информация : UTF-8 Plain Text
Заголовок : SDH2
Язык : English
Default : Нет
Forced : Нет

Текст #4
Идентификатор : 6
Формат : UTF-8
Идентификатор кодека : S_TEXT/UTF8
Идентификатор кодека/Информация : UTF-8 Plain Text
Заголовок : SDH-Colored
Язык : English
Default : Нет
Forced : Нет

Меню
00:00:00.000 : en:Chapter 01
00:04:12.168 : en:Chapter 02
00:09:29.652 : en:Chapter 03
00:13:29.475 : en:Chapter 04
00:18:34.196 : en:Chapter 05
00:23:05.759 : en:Chapter 06
00:28:09.437 : en:Chapter 07
00:34:40.244 : en:Chapter 08
00:40:50.156 : en:Chapter 09
00:49:07.444 : en:Chapter 10
00:56:18.375 : en:Chapter 11
01:01:53.334 : en:Chapter 12
01:05:37.475 : en:Chapter 13
01:12:30.304 : en:Chapter 14
01:17:39.321 : en:Chapter 15
01:23:43.309 : en:Chapter 16
01:28:46.946 : en:Chapter 17
01:34:07.266 : en:Chapter 18
01:43:15.314 : en:Chapter 19
01:51:11.956 : en:Chapter 20

pb.wtf



Скачать Вудлон через торрент http://i77.fastpic.ru/big/2016/0520/06/4701fd5ec7a4dfed0018131d87842e06.png Скачать, смотреть онлайн Вудлон бесплантно в хорошем качестве Описание: Одаренный молодой футболист, опираясь на свой талант и веру, борется с этнической нетерпимостью, как на поле, так и вне его. ... 9.5 10 2
Info! Золотая раздача, скачанное не засчитывается.
Торрент: Зарегистрирован [2016-05-20 13:15] · скачан: 73 раз
Статус: √ проверено
Размер: 1.46 GB
Как cкачать? Как скачать Вудлон через торрент | UTorrent

% Раздел Тема Автор DL S | L
Релизы по Парсеру [Игры, Сериалы и Фильмы и другое...] [ 1.46 GB ] Вудлон / Woodlawn [2015 HDRip] MVO () sanekbest1 Скачать
1 | 0
Фильмы 2015 [DVDrip, WEB-DLRip, HDrip] [ 2.8 GB ] Вудлон / Woodlawn [2015 BDRip-AVC] MVO potroks Скачать
1 | 0
Фильмы 2015 [DVDrip, WEB-DLRip, HDrip] [ 2.18 GB ] Вудлон / Woodlawn [2015 HDRip многоголосый закадровый ""] coc900 Скачать
1 | 0
Фильмы 2015 [DVDrip, WEB-DLRip, HDrip] [ 1.46 GB ] Вудлон / Woodlawn [2015 BDRip] Twi7ter Скачать
1 | 0
Фильмы 2015 [DVDrip, WEB-DLRip, HDrip] [ 2.05 GB ] Вудлон / Woodlawn [2015 HDRip] многоголосый Ворон Скачать
1 | 0

28-11-2019 20:33  

Отключить всю рекламу на сайте

    Дорогой пользователь! Огромная просьба, поблагодарите релизера, оцените раздачу и оставьте свои комментарий, если Вы скачали Вудлон через торрент бесплатно!
    Комментировать посты могут только пользователи прошедшие не сложную регистрацию
    Показать сообщения:    

    Вудлон через торрент
    Скачать бесплатно Вудлон
    Вудлон скачать торрент
    Вудлон смотреть онлайн
    Cкачать фильм Вудлон бесплатно
    Вудлон скачать торрент в хорошем качестве
    Вудлон смотреть онлайн бесплатно в хорошем качестве


    Вы не можете начинать темы
    Вы не можете отвечать на сообщения
    Вы не можете редактировать свои сообщения
    Вы не можете удалять свои сообщения
    Вы не можете голосовать в опросах
    Вы не можете прикреплять файлы к сообщениям
    Вы можете скачивать файлы