Ссылка на приватное зеркало всего за 1$. Внимание количество ограничено!!!

iTunes

iTunes

iTunes

1

iTunes

iTunes

iTunes

iTunes

iTunes

30
pack

Новость дня

ВАЖНО

!!Акция!!

Alien_RageХит недели

RePack

Resident Evil 21

ИГРА 18+

pack

RePack

jed

!!Акция!!

Alien_Rage

RePack

fifa19

RePack

Assassins Creed: Odyssey

RePack

NEED FOR SPEED™ PAYBACK

4 сезон

9 сезон

Бесстыжие 9 сезон

Все сериалы

все сериалы на PB.wtf

RePack

FAR CRY 5
  

Побег за мечтой (Константин Тищенко, Юрий Сысоев, Владимир Мистюков) [2015, криминал, драма, WEB-DLRip, [Русский] pb.wtf

Побег за мечтой через торрент pb.wtf

Размер: 1.37 GB | Добавлен: 4 года назад | Торрент скачан:501 раз
Скачать  

20-05-2016 13:29 Побег за мечтой Скачать торрент  

Побег за мечтой


ИНФОРМАЦИЯ:
Год выпуска:2015
Страна: Россия
Жанр: криминал, драма
Продолжительность: 01:15:46
Перевод: Не требуется [Русский]
Режиссер: Константин Тищенко, Юрий Сысоев, Владимир Мистюков

В Ролях:


Владимир Вдовиченков, Мирослава Карпович, Андрей Чадов, Денис Косяков, Антон Буглак, Александр Кононец, Прохор Чеховской, Александр Фурсенко, Зоя Кайдановская, Алексей Фатеев, Константин Константинов

Описание:
Три истории о трех разных мужчинах. Молодой писатель без книги, но со смертью под боком. Врач с принципиальной позицией и непониманием среди окружающих. И адвокат, считающий, что от всего можно откупиться. Всех троих испытает судьба, и ни один из них не останется прежним...


ТЕХ.ДАННЫЕ:
Качество: WEB-DLRip
Формат: AVI
Видео: XviD, 720x384 (1.875), 2085 kbps, 25 fps, 0,302 bpp
Аудио: AC3 / 2.0 / 48 kHz / 384 kbps / 16 bit


General
Complete name : E:\Раздачи\p0beg.3a.me4t0j.2o16.O.WEB-DLRip.14OOMB.avi
Format : AVI
Format/Info : Audio Video Interleave
File size : 1.37 GiB
Duration : 1h 15mn
Overall bit rate : 2 581 Kbps
Movie name : p0beg.3a.me4t0j.2o15.O.WEB-DLRip.14OOMB
Writing application : VirtualDubMod 1.5.10.2 (build 2540/release)
Original source form/Name : Movie

Video
ID : 0
Format : MPEG-4 Visual
Format profile : Advanced Simple@L5
Format settings, BVOP : 2
Format settings, QPel : No
Format settings, GMC : No warppoints
Format settings, Matrix : Default (MPEG)
Codec ID : XVID
Codec ID/Hint : XviD
Duration : 1h 15mn
Bit rate : 2 086 Kbps
Width : 720 pixels
Height : 384 pixels
Display aspect ratio : 1.875
Frame rate : 25.000 fps
Color space : YUV
Chroma subsampling : 4:2:0
Bit depth : 8 bits
Scan type : Progressive
Compression mode : Lossy
Bits/(Pixel*Frame) : 0.302
Stream size : 1.10 GiB (81%)
Writing library : XviD 1.2.1 (UTC 2008-12-04)

Audio
ID : 1
Format : AC-3
Format/Info : Audio Coding 3
Mode extension : CM (complete main)
Codec ID : 2000
Duration : 1h 15mn
Bit rate mode : Constant
Bit rate : 384 Kbps
Channel(s) : 2 channels
Channel positions : Front: L R
Sampling rate : 48.0 KHz
Bit depth : 16 bits
Compression mode : Lossy
Stream size : 208 MiB (15%)
Alignment : Split accross interleaves
Скриншоты:

© Оформление by .::Ворон::.
pb.wtf



Скачать Побег за мечтой через торрент http://picsee.net/upload/2016-05-20/09dba96fcb5e.jpg Скачать фильм Побег за мечтой через торрент бесплантно в хорошем качестве Описание: Три истории о трех разных мужчинах. Молодой писатель без книги, но со смертью под боком. Врач с принципиальной позицией и ... 9.4 10 14
Info! Золотая раздача, скачанное не засчитывается.
Торрент: Зарегистрирован [2016-05-20 13:29] · скачан: 501 раз
Статус: T временная
Размер: 1.37 GB
Как cкачать? Как скачать Побег за мечтой через торрент | qTorrent

% Раздел Тема Автор DL S | L
T Наши новые фильмы 2015 [ 1.37 GB ] Побег за мечтой [2015 Россия WEB-DLRip-AVC от sokol_ok] sokol_ok Скачать
2 | 0
Наши новые фильмы 2012 [ 747 MB ] Побег за мечтой [2015 Россия WEB-DLRip-AVC от sokol_ok] sokol_ok Скачать
2 | 0
T Наши фильмы (HD, WEB-DL 720p, 1080p) [ 2.91 GB ] Побег за мечтой [2015 WEB-DL 1080p] -Lexx- Скачать
1 | 0

28-11-2019 20:33  

Отключить всю рекламу на сайте

20-05-2016 13:31 Побег за мечтой Скачать торрент  

Наш канал на ЮТУБЕ подписывайтесь пираты)=
https://www.youtube.com/channel/UCVOgohOugtNuCM9aXr9KVeg

pb.wtf



20-05-2016 14:24 Побег за мечтой Скачать торрент  

Чет заинтересовало, качество бы получше.pb.wtf



20-05-2016 17:05 Побег за мечтой Скачать торрент  

Веталь, спасибо за релиз, и за ссыль ))) подписался )))pb.wtf



15-08-2016 19:58 Побег за мечтой Скачать торрент  

Ворон писал(а):

Наш канал на ЮТУБЕ подписывайтесь пираты)=
https://www.youtube.com/channel/UCVOgohOugtNuCM9aXr9KVeg


С удовольствием;)pb.wtf



    Дорогой пользователь! Огромная просьба, поблагодарите релизера, оцените раздачу и оставьте свои комментарий, если Вы скачали Побег за мечтой через торрент бесплатно! Внесите свою лепту в развитие PiratBit!
    Комментировать посты могут только пользователи прошедшие не сложную регистрацию
    Показать сообщения:    

    Побег за мечтой через торрент
    Скачать бесплатно Побег за мечтой
    Побег за мечтой скачать торрент
    Побег за мечтой смотреть онлайн
    Cкачать фильм Побег за мечтой бесплатно
    Побег за мечтой скачать торрент в хорошем качестве
    Побег за мечтой смотреть онлайн бесплатно в хорошем качестве


    Вы не можете начинать темы
    Вы не можете отвечать на сообщения
    Вы не можете редактировать свои сообщения
    Вы не можете удалять свои сообщения
    Вы не можете голосовать в опросах
    Вы не можете прикреплять файлы к сообщениям
    Вы можете скачивать файлы