Ссылка на приватное зеркало всего за 1$. Внимание количество ограничено!!!

OK

1+1

iTunes

мы

OK

1

WEB-DLRip

Джокер

Пифагор

Ведьмак / The Witcher сериал

Лицензия

ПШазам

ОК

Оно 2

iTunes

30
pack

Вам бонус

ВАЖНО

!!Акция!!

Alien_RageХит недели

RePack

Resident Evil 21

ИГРА 18+

pack

RePack

jed

!!Акция!!

Alien_Rage

RePack

fifa19

RePack

Assassins Creed: Odyssey

RePack

NEED FOR SPEED™ PAYBACK

4 сезон

9 сезон

Бесстыжие 9 сезон

Все сериалы

все сериалы на PB.wtf

RePack

FAR CRY 5
  

Тропа гиены / Hyena Road (Пол Гросс) [2015, драма, военный, HDRip ] VO [Хихикающий доктор] pb.wtf

Тропа гиены через торрент pb.wtf

Размер: 1.45 GB | Добавлен: 3 года 7 мес. назад | Торрент скачан:353 раза
Скачать  

20-05-2016 16:38 Тропа гиены Скачать торрент  

Информация о фильме

Название: Тропа гиены

Оригинальное название: Hyena Road

Год выхода: 2015

Страна: Канада / Bron Creative, International Traders, Whizbang Films Inc....

Жанр: драма, военный

Продолжительность: 02:00:00

Перевод: Любительский (одноголосый) Хихикающий доктор (Без рекламы)

Субтитры: English (внешние)

Режиссер: Пол Гросс

В ролях: Россиф Сазерленд, Пол Гросс, Кларк Джонсон, Аллан Хоуко, Дэвид Ричмонд-Пек, Дженнифер Пудавик

Описание: Три разных человека, три разных мира, три разных войны — все стоят на пересечении современной войны — в мутном мире меняющейся нравственности, где всё не так, как кажется. До войны у них была спокойная гражданка рядом с близкими людьми, мечты о будущем и возможность самостоятельно принимать решения на своём пути, но подписав контракт ради денег они стали орудием в бесконечной и бессмысленной войне. Снайпер оказывается невольно вовлечён в жизнь одной из своих целей. Офицер разведки выступает основным мотиватором в убийстве. Легендарный воин-моджахед, решивший уйти от сражений и кровопролитий в спокойный мир, находит себя в центре очередного побоища. Они не похожи друг на друга, но все трое вынуждены крутиться во мрачном мире, где всё на деле оказывается совсем не тем, чем казалось на первый взгляд.



Файл

Качество: HDRip

Формат: AVI

Видео: XviD, 1536 Kb/s, 720x400, 23,976 кадра/сек

Звук: MPEG Lауеr 3, 192.00 Kb/s (2 сh), 44,1 КГц

Общее
Полное имя : E:\Torrent\film\Hyena Road (2015) HDRip\Hyena.Road.2015.HDRip.avi
Формат : AVI
Формат/Информация : Audio Video Interleave
Профиль формата : OpenDML
Размер файла : 1,45 Гбайт
Продолжительность : 2 ч. 0 м.
Общий поток : 1735 Кбит/сек
Программа кодирования : XviD4PSP 6.0 / 54.29.105

Видео
Идентификатор : 0
Формат : xvid
Идентификатор кодека : xvid
Продолжительность : 2 ч. 0 м.
Битрейт : 1530 Кбит/сек
Ширина : 720 пикселей
Высота : 400 пикселей
Соотношение сторон : 16:9
Частота кадров : 23,976 кадра/сек
Тип развёртки : Прогрессивная
Бит/(Пиксели*Кадры) : 0.222
Размер потока : 1,28 Гбайт (88%)

Аудио
Идентификатор : 1
Формат : MPEG Audio
Версия формата : Version 1
Профиль формата : Layer 3
Идентификатор кодека : 55
Идентификатор кодека/Подсказка : MP3
Продолжительность : 2 ч. 0 м.
Вид битрейта : Постоянный
Битрейт : 192 Кбит/сек
Каналы : 2 канала
Частота : 44,1 КГц
Метод сжатия : С потерями
Размер потока : 165 Мбайт (11%)
Выравнивание : Соединение по промежуткам
Продолжительность промежутка : 26 мс. (0,63 видеокадр)
pb.wtf



Скачать Тропа гиены через торрент http://i79.fastpic.ru/big/2016/0520/5d/39b74c5ad688940def9023d61d498c5d.png Скачать фильм Тропа гиены через торрент бесплантно в хорошем качестве Описание: Три разных человека, три разных мира, три разных войны — все стоят на пересечении современной войны — в мутном мире меняющейся ... 8.2 10 13
Торрент: Зарегистрирован [2016-05-20 16:38] · скачан: 353 раз
Статус: T временная
Размер: 1.45 GB
Как cкачать? Как скачать Тропа гиены через торрент | qTorrent

% Раздел Тема Автор DL S | L
T Релизы по Парсеру [Игры, Сериалы и Фильмы и другое...] [ 2.05 GB ] Тропа гиены / Hyena Road [2015 военный HDRip] MVO [Синема УС] bober100 Скачать
1 | 0
T Фильмы (Blu-ray, BD-Remux, HDDVD) [ 33.81 GB ] Тропа гиены / Hyena Road [2015 военный BDRemux 1080p] Любительский / Xixidok Russian Mafia Скачать
1 | 0

28-11-2019 20:33  

Отключить всю рекламу на сайте

20-05-2016 21:18 Тропа гиены Скачать торрент  

Надо глянуть , люблю военные драмы . СПС !pb.wtf



21-05-2016 18:17 Тропа гиены Скачать торрент  

охренеть как хорошо.
сильный фильм про войну и людей на войне. одобрям и рекомендую.
автору огромный респект за наводку, любопытства ради скачал и не пожалел.pb.wtf



    Дорогой пользователь! Огромная просьба, поблагодарите релизера, оцените раздачу и оставьте свои комментарий, если Вы скачали Тропа гиены через торрент бесплатно! Внесите свою лепту в развитие PiratBit!
    Комментировать посты могут только пользователи прошедшие не сложную регистрацию
    Показать сообщения:    

    Тропа гиены через торрент
    Скачать бесплатно Тропа гиены
    Тропа гиены скачать торрент
    Тропа гиены смотреть онлайн
    Cкачать фильм Тропа гиены бесплатно
    Тропа гиены скачать торрент в хорошем качестве
    Тропа гиены смотреть онлайн бесплатно в хорошем качестве


    Вы не можете начинать темы
    Вы не можете отвечать на сообщения
    Вы не можете редактировать свои сообщения
    Вы не можете удалять свои сообщения
    Вы не можете голосовать в опросах
    Вы не можете прикреплять файлы к сообщениям
    Вы можете скачивать файлы