Ссылка на приватное зеркало нашего сайта всего за 1$. Внимание количество ограничено!!!

2 сезон

iTunes

1 сезон

1

iTunes

iTunes

iTunes

1 сезон

RePack

30

ИГРА 18+

pack

ВАЖНО

!!Акция!!

Alien_RageХит недели

RePack

MK11
pack

Забери бонус

RePack

jed

!!Акция!!

Alien_Rage

RePack

fifa19

RePack

Assassins Creed: Odyssey

RePack

NEED FOR SPEED™ PAYBACK

4 сезон

9 сезон

Бесстыжие 9 сезон

Все сериалы

все сериалы на PB.wtf

RePack

FAR CRY 5
  

Гордость и предубеждение и зомби / Pride and Prejudice and Zombies (Бёрр Стирс) [2016, ужасы, боевик, мелодрама, BDRip 1080p] [Dub] [Лицензия] pb.wtf

Гордость и предубеждение и зомби через торрент pb.wtf

Размер: 9.28 GB | Добавлен: 4 года 5 мес. назад | Торрент скачан:321 раз
Скачать  

20-05-2016 17:37 Гордость и предубеждение и зомби Скачать торрент  

Гордость и предубеждение и зомби / Pride and Prejudice and Zombies
Год выпуска: 2016
Страна: США
Жанр: ужасы, боевик, мелодрама
Продолжительность: 01:47:32
Перевод: Профессиональный (дублированный) [Лицензия]
Cубтитры: Английские

Режиссер: Бёрр Стирс / Burr Steers

В ролях: Лили Джеймс, Сэм Райли, Белла Хиткот, Элли Бамбер, Милли Брэйди, Сьюки Уотерхаус, Дуглас Бут, Сэлли Филлипс, Чарльз Дэнс, Джек Хьюстон Начало XIX века. На одном из бесчисленных светских раутов Элизабет Беннет встречает любовь всей своей жизни - мистера Дарси. Между обуреваемыми тайными страстями пылкими сердцами стоят гордость истинного дворянина и предубеждение благовоспитанной особы. Их чувственный и пронизанный трагическими нотками, но в то же время преисполненный светлой грусти роман развивается на фоне заполонивших сердце британской нации армии живых мертвецов.



Качество видео: BDRip 1080p
Формат видео: MKV
Видео: MPEG-4 AVC, 10.1 Мбит/с, 1920x800, 23.976 fps
Аудио: DTS, 768 Kbps, 48.0 KHz, 6 ch [DUB]
Аудио: DTS, 1509 Kbps, 48.0 KHz, 6 ch [ENG]
General
Unique ID : 240177307389892122930686366587604512977 (0xB4B07781F02BC966A52E4916D56530D1)
Complete name : E:\GOrdosT.vs.ZomBiE.2O16.D.BDRip.1O8OP.mkv
Format : Matroska
Format version : Version 2
File size : 9.28 GiB
Duration : 1h 47mn
Overall bit rate : 12.4 Mbps
Encoded date : UTC 2016-05-20 15:53:24
Writing application : mkvmerge v8.3.0 ('Over the Horizon') 64bit
Writing library : libebml v1.3.1 + libmatroska v1.4.2

Video
ID : 1
Format : AVC
Format/Info : Advanced Video Codec
Format profile : High@L4.1
Format settings, CABAC : Yes
Format settings, ReFrames : 5 frames
Codec ID : V_MPEG4/ISO/AVC
Duration : 1h 47mn
Bit rate : 10.1 Mbps
Width : 1 920 pixels
Height : 800 pixels
Display aspect ratio : 2.40:1
Frame rate mode : Constant
Frame rate : 23.976 fps
Color space : YUV
Chroma subsampling : 4:2:0
Bit depth : 8 bits
Scan type : Progressive
Bits/(Pixel*Frame) : 0.273
Stream size : 7.38 GiB (80%)
Writing library : x264 core 148 r2694 3b70645
Encoding settings : cabac=1 / ref=5 / deblock=1:-3:-3 / analyse=0x3:0x133 / me=umh / subme=11 / psy=1 / psy_rd=1.00:0.00 / mixed_ref=1 / me_range=48 / chroma_me=1 / trellis=2 / 8x8dct=1 / cqm=0 / deadzone=21,11 / fast_pskip=0 / chroma_qp_offset=-2 / threads=12 / lookahead_threads=2 / sliced_threads=0 / nr=0 / decimate=0 / interlaced=0 / bluray_compat=0 / constrained_intra=0 / bframes=8 / b_pyramid=2 / b_adapt=2 / b_bias=0 / direct=3 / weightb=1 / open_gop=0 / weightp=2 / keyint=240 / keyint_min=2 / scenecut=40 / intra_refresh=0 / rc=2pass / mbtree=0 / bitrate=10050 / ratetol=1.0 / qcomp=0.70 / qpmin=0 / qpmax=69 / qpstep=4 / cplxblur=20.0 / qblur=0.5 / ip_ratio=1.40 / pb_ratio=1.30 / aq=3:0.80
Default : Yes
Forced : No

Audio #1
ID : 2
Format : DTS
Format/Info : Digital Theater Systems
Mode : 16
Format settings, Endianness : Big
Codec ID : A_DTS
Duration : 1h 47mn
Bit rate mode : Constant
Bit rate : 768 Kbps
Channel(s) : 6 channels
Channel positions : Front: L C R, Side: L R, LFE
Sampling rate : 48.0 KHz
Bit depth : 16 bits
Compression mode : Lossy
Stream size : 591 MiB (6%)
Language : Russian
Default : Yes
Forced : Yes

Audio #2
ID : 3
Format : DTS
Format/Info : Digital Theater Systems
Mode : 16
Format settings, Endianness : Big
Codec ID : A_DTS
Duration : 1h 47mn
Bit rate mode : Constant
Bit rate : 1 509 Kbps
Channel(s) : 6 channels
Channel positions : Front: L C R, Side: L R, LFE
Sampling rate : 48.0 KHz
Bit depth : 16 bits
Compression mode : Lossy
Stream size : 1.13 GiB (12%)
Language : English
Default : No
Forced : No

Text
ID : 4
Format : PGS
Muxing mode : zlib
Codec ID : S_HDMV/PGS
Codec ID/Info : Picture based subtitle format used on BDs/HD-DVDs
Language : English
Default : No
Forced : No

pb.wtf



Скачать Гордость и предубеждение и зомби через торрент http://s017.radikal.ru/i442/1602/5d/4f65d2f322a2.jpg Скачать фильм Гордость и предубеждение и зомби через торрент бесплантно в хорошем качестве В ролях: Лили Джеймс, Сэм Райли, Белла Хиткот, Элли Бамбер, Милли Брэйди, Сьюки Уотерхаус, Дуглас Бут, Сэлли Филлипс, Чарльз Дэнс, Джек ... 9.3 10 15
Info! Золотая раздача, скачанное не засчитывается.
Торрент: Зарегистрирован [2016-05-20 17:37] · скачан: 321 раз
Статус: √ проверено
Размер: 9.28 GB
Как cкачать? Как скачать Гордость и предубеждение и зомби через торрент | qTorrent

% Раздел Тема Автор DL S | L
Ultra HD (UHD: 2K, 4K, 8K) — видео сверхвысокой чёткости [ 54.1 GB ] Гордость и предубеждение и зомби / Pride and Prejudice and Zombies [2015 UHD BDRemux 2160p] - [] sheker187 Скачать
1 | 0
Фильмы [HD 720p, 1080p] (Хороший звук DUB, MVO) [ 7.66 GB ] Гордость и предубеждение и зомби / Pride and Prejudice and Zombies [2015 BDRip 1080p от NNNB] DUB () _denis_100 Скачать
1 | 0
Фильмы 2016 [DVDrip, WEB-DLRip, HDrip] (DUB, MVO) [ 2.18 GB ] Гордость и предубеждение и зомби / Pride and Prejudice and Zombies [2016 BDRip-AVC от sokol_ok] DUB sokol_ok Скачать
2 | 0
Фильмы 2016 [DVDrip, WEB-DLRip, HDrip] (DUB, MVO) [ 2.19 GB ] Гордость и предубеждение и зомби / Pride and Prejudice and Zombies [2016 BDRip] DUB Twi7ter Скачать
1 | 0
Фильмы 2016 [DVDrip, WEB-DLRip, HDrip] (DUB, MVO) [ 1.46 GB ] Гордость и предубеждение и зомби / Pride and Prejudice and Zombies [2016 BDRip] DUB Twi7ter Скачать
1 | 0
Фильмы 2016 [DVDrip, WEB-DLRip, HDrip] (DUB, MVO) [ 1.46 GB ] Гордость и предубеждение и зомби / Pride and Prejudice and Zombies [2016 BDRip-AVC от sokol_ok] DUB sokol_ok Скачать
3 | 0
Фильмы 2016 [DVDrip, WEB-DLRip, HDrip] (DUB, MVO) [ 2.05 GB ] Гордость и предубеждение и зомби / Pride and Prejudice and Zombies [2016 HDRip] [] killermax2013 Скачать
1 | 0

28-11-2019 20:33  

Отключить всю рекламу на сайте

    Дорогой пользователь! Огромная просьба, поблагодарите релизера, оцените раздачу и оставьте свои комментарий, если Вы скачали Гордость и предубеждение и зомби через торрент бесплатно! Внесите свою лепту в развитие PiratBit!
    Комментировать посты могут только пользователи прошедшие не сложную регистрацию
    Показать сообщения:    

    Гордость и предубеждение и зомби через торрент
    Скачать бесплатно Гордость и предубеждение и зомби
    Гордость и предубеждение и зомби скачать торрент
    Гордость и предубеждение и зомби смотреть онлайн
    Cкачать фильм Гордость и предубеждение и зомби бесплатно
    Гордость и предубеждение и зомби скачать торрент в хорошем качестве
    Гордость и предубеждение и зомби смотреть онлайн бесплатно в хорошем качестве


    Вы не можете начинать темы
    Вы не можете отвечать на сообщения
    Вы не можете редактировать свои сообщения
    Вы не можете удалять свои сообщения
    Вы не можете голосовать в опросах
    Вы не можете прикреплять файлы к сообщениям
    Вы можете скачивать файлы