Ссылка на приватное зеркало всего за 1$. Внимание количество ограничено!!!

iTunes

iTunes

iTunes

1

iTunes

iTunes

iTunes

WEBRip

iTunes

30
pack

$ от Little Big

ВАЖНО

!!Акция!!

Alien_RageХит недели

RePack

Resident Evil 21

ИГРА 18+

pack

RePack

jed

!!Акция!!

Alien_Rage

RePack

fifa19

RePack

Assassins Creed: Odyssey

RePack

NEED FOR SPEED™ PAYBACK

4 сезон

9 сезон

Бесстыжие 9 сезон

Все сериалы

все сериалы на PB.wtf

RePack

FAR CRY 5
  

Страна мухоморов (Леонид Машинский, Владимир Зубков) [2009, комедия, DVDRip, [Русский] pb.wtf

Страна мухоморов через торрент pb.wtf

Размер: 1.09 GB | Добавлен: 4 года 2 мес. назад | Торрент скачан:50 раз
Скачать  

20-05-2016 20:38 Страна мухоморов Скачать торрент  


Страна мухоморов


ИНФОРМАЦИЯ:
Год выпуска:2009
Страна: Россия
Жанр: комедия
Продолжительность: 01:07:58
Перевод: Не требуется [Русский]
Режиссер: Леонид Машинский, Владимир Зубков

В Ролях:


Сергей Сальников, Татьяна Камина, Галина Лихман, Леонид Машинский, Валентин Вахонин, Денис Кирсанов

Описание:
Это фильм-притча, который повествует о неожиданном путешествии протагониста в собственное подсознание, где он, пройдя череду приключений и трансформаций, в конце концов, обретает «самость», превращаясь, собственно, в Героя. При этом «Страна мухоморов» символизирует Родину, Россию, внутри и снаружи, со всеми ее странными обитателями, ужасами и красотами.


ТЕХ.ДАННЫЕ:
Качество: DVDRip
Формат: AVI
Видео: XviD, 704x528 (4:3), 2009 kbps, 25 fps, 0,216 bpp
Аудио: MP3 / 2.0 / 48 kHz / 192 kbps /


General
Complete name : E:\Раздачи\Страна Мухоморов.avi
Format : AVI
Format/Info : Audio Video Interleave
File size : 1.09 GiB
Duration : 1h 7mn
Overall bit rate : 2 302 Kbps
Writing application : VirtualDubMod 1.5.4.1 (build 2178/release)
Writing library : VirtualDubMod build 2178/release

Video
ID : 0
Format : MPEG-4 Visual
Format profile : Advanced Simple@L5
Format settings, BVOP : 1
Format settings, QPel : No
Format settings, GMC : No warppoints
Format settings, Matrix : Custom
Codec ID : XVID
Codec ID/Hint : XviD
Duration : 1h 7mn
Bit rate : 2 010 Kbps
Width : 704 pixels
Height : 528 pixels
Display aspect ratio : 4:3
Frame rate : 25.000 fps
Color space : YUV
Chroma subsampling : 4:2:0
Bit depth : 8 bits
Scan type : Progressive
Compression mode : Lossy
Bits/(Pixel*Frame) : 0.216
Stream size : 977 MiB (87%)
Writing library : XviD 1.2.1 (UTC 2008-12-04)

Audio
ID : 1
Format : MPEG Audio
Format version : Version 1
Format profile : Layer 3
Mode : Joint stereo
Codec ID : 55
Codec ID/Hint : MP3
Duration : 1h 7mn
Bit rate mode : Constant
Bit rate : 192 Kbps
Channel(s) : 2 channels
Sampling rate : 48.0 KHz
Compression mode : Lossy
Stream size : 93.3 MiB (8%)
Alignment : Aligned on interleaves
Writing library : LAME3.98r
Encoding settings : -m j -V 4 -q 2 -lowpass 18.6 -b 192
Скриншоты:

© Оформление by .::Ворон::.
pb.wtf


Скачать Страна мухоморов через торрент http://pic.kartinco.top/images/6/ordi9.jpg Скачать фильм Страна мухоморов через торрент бесплантно в хорошем качестве Описание: Это фильм-притча, который повествует о неожиданном путешествии протагониста в собственное подсознание, где он, пройдя череду ... 8.3 10 6
Торрент: Зарегистрирован [2016-05-20 20:38] · скачан: 50 раз
Статус: √ проверено
Размер: 1.09 GB
Как cкачать? Как скачать Страна мухоморов через торрент | qTorrent

28-11-2019 20:33  

Отключить всю рекламу на сайте

30-07-2016 18:01 Страна мухоморов Скачать торрент  

Сюрреализм есть сюрреализм.И воспринимать его надо соответствующим образом.Но ,к примеру,Город Зеро в плане сюра или абсурда просто шедевр,а здесь как-то всё бедненько и не очень профессионально.pb.wtf



20-05-2019 18:00 Страна мухоморов Скачать торрент  

скоростиpb.wtf



    Дорогой пользователь! Огромная просьба, поблагодарите релизера, оцените раздачу и оставьте свои комментарий, если Вы скачали Страна мухоморов через торрент бесплатно! Внесите свою лепту в развитие PiratBit!
    Комментировать посты могут только пользователи прошедшие не сложную регистрацию
    Показать сообщения:    

    Страна мухоморов через торрент
    Скачать бесплатно Страна мухоморов
    Страна мухоморов скачать торрент
    Страна мухоморов смотреть онлайн
    Cкачать фильм Страна мухоморов бесплатно
    Страна мухоморов скачать торрент в хорошем качестве
    Страна мухоморов смотреть онлайн бесплатно в хорошем качестве


    Вы не можете начинать темы
    Вы не можете отвечать на сообщения
    Вы не можете редактировать свои сообщения
    Вы не можете удалять свои сообщения
    Вы не можете голосовать в опросах
    Вы не можете прикреплять файлы к сообщениям
    Вы можете скачивать файлы