>

7.4

iTunes

7.4

2 сезон

9.4

1 сезон

1

7.4

2 сезон

7.2

iTunes

6.0

MVO

13

6.1

iTunes

8.3

Пиратка

30

ULTIMATE

pack

9.9

Лицензия

ВАЖНО

ИГРА 18+

pack

7.3

RePack

MK11

7.7

RePack

jed

7.8

RePack

fifa19

8.5

RePack

RDR2

RePack

NEED FOR SPEED™ PAYBACK

1 сезон

9 сезон

Бесстыжие 9 сезон

Все сериалы

все сериалы на PB.wtf

RePack

FAR CRY 5

Anonymous, доброй ночи, мы катастрофически не успеваем собрать деньги на оплату серверов, помогите нам пожалуйста 5,10,15р., для нас важна любая помощь . В качестве благодарности мы отключим Вам всю рекламу на сайте (укажите свой ник в строку Ваше имя)!

×
  
Magnet ссылка

Выживший / The Revenant (Алехандро Гонсалес Иньярриту / Alejandro G. Iñárritu) [2015, триллер, драма, приключения, вестерн, BDRip-AVC] [AVO] (Юрий Сербин) pb.wtf

Выживший через торрент pb.wtf

Размер: 2.18 GB | Добавлен: 5 лет 7 мес. назад | Торрент скачан:163 раза
Смотреть онлайн Выживший | Скачать    Ребята, помогите собрать деньги на оплату серверов!!!

20-05-2016 21:25 Выживший Скачать торрент  

Выживший / The Revenant
Год выпуска: 2015
Страна: США, Гонконг, Тайвань, Канада
Жанр: триллер, драма, приключения, вестерн
Продолжительность: 02:36:21
Перевод: Авторский (одноголосый закадровый) [Юрий Сербин]
Cубтитры: нет

Режиссер: Алехандро Гонсалес Иньярриту / Alejandro G. Iñárritu

В ролях: Леонардо ДиКаприо, Том Харди, Донал Глисон, Уилл Поултер, Форрест Гудлак, Пол Андерсон, Кристоффер Йонер, Джошуа Бёрдж, Дуан Ховард, Мила Нахеко

Описание: Охотник Хью Гласс серьезно ранен на неизведанных просторах американского Дикого Запада. Товарищ Хью по отряду покорителей новых земель Джон Фицжеральд предательски оставляет его умирать в одиночестве. Теперь у Гласса осталось только одно оружие — его сила воли. Он готов бросить вызов первобытной природе, суровой зиме и враждебным племенам индейцев, только чтобы выжить и отомстить Фицжеральду.


Качество видео: BDRip-AVC
Формат видео: MKV
Видео кодек: H264
Аудио кодек: AC3
Видео: 1022x428 (2,40:1), 23,976 fps, ~1549 kbps, 0.148 bit/pixel
Аудио: 48 kHz, AC3 Dolby Digital, 3/2 (L,C,R,l,r) + LFE ch, ~448 kbps

Цитата:

за видеоряд спасибо Vaippp
за Сербина спасибо: timur

Полное имя : Выживший 2015.mkv
Формат : Matroska
Версия формата : Version 4 / Version 2
Размер файла : 2,18 Гбайт
Продолжительность : 2 ч. 36 м.
Общий поток : 1993 Кбит/сек
Дата кодирования : UTC 2016-05-20 16:07:21
Программа кодирования : mkvmerge v8.3.0 ('Over the Horizon') 64bit
Библиотека кодирования : libebml v1.3.1 + libmatroska v1.4.2
DURATION : 02:36:21.376000000
NUMBER_OF_FRAMES : 293168
NUMBER_OF_BYTES : 525357056
_STATISTICS_WRITING_APP : mkvmerge v8.3.0 ('Over the Horizon') 64bit
_STATISTICS_WRITING_DATE_UTC : 2016-05-20 16:07:21
_STATISTICS_TAGS : BPS DURATION NUMBER_OF_FRAMES NUMBER_OF_BYTES
Видео
Идентификатор : 1
Формат : AVC
Формат/Информация : Advanced Video Codec
Профиль формата : High@L4.1
Параметр CABAC формата : Да
Параметр ReFrames формата : 12 кадров
Идентификатор кодека : V_MPEG4/ISO/AVC
Продолжительность : 2 ч. 36 м.
Битрейт : 1549 Кбит/сек
Ширина : 1022 пикселя
Высота : 428 пикселей
Соотношение сторон : 2,40:1
Режим частоты кадров : Постоянный
Частота кадров : 23,976 кадра/сек
Цветовое пространство : YUV
Субдискретизация насыщенности : 4:2:0
Битовая глубина : 8 бит
Тип развёртки : Прогрессивная
Бит/(Пиксели*Кадры) : 0.148
Размер потока : 1,64 Гбайт (76%)
Библиотека кодирования : x264 core 148 r2665+53 6629127 t_mod_Custom [8-bit@all X86_64]
Настройки программы : cabac=1 / ref=12 / deblock=1:-2:-1 / analyse=0x3:0x133 / me=umh / subme=10 / psy=1 / fade_compensate=0.00 / psy_rd=1.02:0.00 / mixed_ref=1 / me_range=48 / chroma_me=1 / trellis=2 / 8x8dct=1 / cqm=0 / deadzone=21,11 / fast_pskip=0 / chroma_qp_offset=-2 / threads=12 / lookahead_threads=3 / sliced_threads=0 / nr=0 / decimate=0 / interlaced=0 / bluray_compat=0 / constrained_intra=0 / fgo=0 / bframes=10 / b_pyramid=2 / b_adapt=2 / b_bias=0 / direct=3 / weightb=1 / open_gop=0 / weightp=2 / keyint=240 / keyint_min=22 / scenecut=40 / intra_refresh=0 / rc_lookahead=60 / rc=2pass / mbtree=0 / bitrate=1549 / ratetol=1.0 / qcomp=0.65 / qpmin=0:0:0 / qpmax=69:69:69 / qpstep=4 / cplxblur=20.0 / qblur=0.5 / vbv_maxrate=50000 / vbv_bufsize=62500 / nal_hrd=none / filler=0 / ip_ratio=1.40 / pb_ratio=1.30 / aq=3:0.85 / aq-sensitivity=10.00 / aq-factor=1.00:1.00:1.00 / aq2=0 / aq3=0
Язык : English
Default : Да
Forced : Нет
DURATION : 02:36:21.372000000
NUMBER_OF_FRAMES : 224928
NUMBER_OF_BYTES : 1809540346
_STATISTICS_WRITING_APP : mkvmerge v8.3.0 ('Over the Horizon') 64bit
_STATISTICS_WRITING_DATE_UTC : 2016-05-20 16:07:21
_STATISTICS_TAGS : BPS DURATION NUMBER_OF_FRAMES NUMBER_OF_BYTES
Аудио
Идентификатор : 2
Формат : AC-3
Формат/Информация : Audio Coding 3
Расширение режима : CM (complete main)
Параметр Endianness формата : Big
Идентификатор кодека : A_AC3
Продолжительность : 2 ч. 36 м.
Вид битрейта : Постоянный
Битрейт : 448 Кбит/сек
Каналы : 6 каналов
Расположение каналов : Front: L C R, Side: L R, LFE
Частота : 48,0 КГц
Метод сжатия : С потерями
Размер потока : 501 Мбайт (22%)
Default : Да
Forced : Нет
pb.wtf



Скачать Выживший через торрент http://i80.fastpic.ru/big/2016/0520/8f/45d1999b6316cefc60ce5405980c438f.jpg Скачать, смотреть онлайн Выживший бесплантно в хорошем качестве Описание: Охотник Хью Гласс серьезно ранен на неизведанных просторах американского Дикого Запада. Товарищ Хью по отряду покорителей новых ... 9.2 10 5
Info! Золотая раздача, скачанное не засчитывается.
Торрент: Зарегистрирован [2016-05-20 21:25] · скачан: 163 раз
Статус: √ проверено
Размер: 2.18 GB
Как cкачать? Как скачать Выживший через торрент | UTorrent

% Раздел Тема Автор DL S | L
Фильмы [HD 720p, 1080p] (Хороший звук DUB, MVO) [ 7.84 GB ] Выживший / The Revenant [2015 BDRip-HEVC 1080p] DUB [] bober100 Скачать
3 | 0
Ultra HD (UHD: 2K, 4K, 8K) — видео сверхвысокой чёткости [ 35.96 GB ] Выживший / The Revenant [2015 UHD BDRip 2160p] DUB + 2xAVO sheker187 Скачать
1 | 1
# Фильмы (Blu-ray, BD-Remux, HDDVD) [ 51.17 GB ] Выживший / The Revenant [2015 BDRemux 1080p] DUB + 3xAVO sheker187 Скачать
1 | 0
Фильмы [HD 720p, 1080p] (Хороший звук DUB, MVO) [ 8.7 GB ] Выживший / The Revenant [2015 BDRip 720p] DUB potroks Скачать
1 | 0
Ultra HD (UHD: 2K, 4K, 8K) — видео сверхвысокой чёткости [ 52.45 GB ] Выживший / The Revenant [2015 UHD BDRemux 2160p] DUB + 2xAVO [] sheker187 Скачать
1 | 0
Фильмы [HD 720p, 1080p] (Хороший звук DUB, MVO) [ 7.9 GB ] Выживший / The Revenant [2015 BDRip 720p от _denis_100 / NNNB] DUB 2xAVO + Original + Sub _denis_100 Скачать
1 | 0
Фильмы 2015 [DVDrip, WEB-DLRip, HDrip] [ 4.96 GB ] Выживший / The Revenant [2015 BDRip-AVC Dub 2 x AVO][Open Matte] от ExKinoRay morfyi Скачать
2 | 0

28-11-2019 20:33  

Отключить всю рекламу на сайте

21-05-2016 04:06 Выживший Скачать торрент  

Фильм классный но и бреда много.pb.wtf



    Дорогой пользователь! Огромная просьба, поблагодарите релизера, оцените раздачу и оставьте свои комментарий, если Вы скачали Выживший через торрент бесплатно!
    Комментировать посты могут только пользователи прошедшие не сложную регистрацию
    Показать сообщения:    

    Выживший через торрент
    Скачать бесплатно Выживший
    Выживший скачать торрент
    Выживший смотреть онлайн
    Cкачать фильм Выживший бесплатно
    Выживший скачать торрент в хорошем качестве
    Выживший смотреть онлайн бесплатно в хорошем качестве


    Вы не можете начинать темы
    Вы не можете отвечать на сообщения
    Вы не можете редактировать свои сообщения
    Вы не можете удалять свои сообщения
    Вы не можете голосовать в опросах
    Вы не можете прикреплять файлы к сообщениям
    Вы можете скачивать файлы