1 сезон

3 сезон

iTunes

1

Line

MVO

iTunes

13

1 сезон

RePack

30

Deluxe

pack

Лицензия

ВАЖНО

ИГРА 18+

pack

RePack

MK11

RePack

jed

RePack

fifa19

RePack

RDR2

RePack

NEED FOR SPEED™ PAYBACK

4 сезон

9 сезон

Бесстыжие 9 сезон

Все сериалы

все сериалы на PB.wtf

RePack

FAR CRY 5

Anonymous, доброй ночи, мы катастрофически не успеваем собрать деньги на оплату серверов, помогите нам пожалуйста 5,10,15р., для нас важна любая помощь . В качестве благодарности мы отключим Вам всю рекламу на сайте (укажите свой ник в строку Ваше имя)!

×
  
Magnet ссылка

Команда уничтожить / Kill Command (Стивен Гомез) [2016, ужасы, фантастика, боевик, BDRip-AVC, Любительский двухголосый [Parovoz Production] R.G.Resident pb.wtf

Команда уничтожить через торрент pb.wtf

Размер: 1.46 GB | Добавлен: 5 лет 2 мес. назад | Торрент скачан:127 раз
Скачать  

21-05-2016 04:25 Команда уничтожить Скачать торрент  

Команда уничтожить / Kill Command
««Подчинись роботам!»»


Год выпуска: 2016
Страна: Великобритания
Жанр: ужасы, фантастика, боевик
Продолжительность: 01:39:32
Перевод: Любительский двухголосый [Parovoz Production]
Режиссер: Стивен Гомез
В ролях:

Ванесса Кирби (Mills), Туре Линдхардт (Captain Bukes), Дэвид Аджала (Drifter), Майк Ноубл (Goodwin), Том МакКэй (Cutbill), Бентли Калу (Robinson), Оси Окерафор (Loftus), Дебора Росан (Laboratory Technician), Келли Гоф, Тим Ахерн, Дэмиэн Келл (Winder)
Описание:
Недалекое будущее. Экспериментальный отряд специальных агентов высаживается на необитаемом острове для прохождения интенсивных боевых учений. Но на острове высадился кто-то еще. И это - не люди...
Мировая премьера: 13 мая 2016

Качество: BDRip-AVC Rip by White Smoke

Формат: MKV
Видео: AVC, 1024x426 (2.40:1), 1719 kbps, 24 fps, 0,164 bpp
Аудио: русский / AC3 / 5.1 / 48 kHz / 384 kbps / 16 bit ||
  • Навигация по главам: есть



    Код:

    General
    Unique ID                                : 170478562808029693786926479250884161995 (0x8040FA160A51CDC78A33C0E7E5E071CB)
    Complete name                            : C:\Kill.Command.2016.BDRip-AVC.Rip.by.White Smoke.R.G.Resident.mkv
    Format                                   : Matroska
    Format version                           : Version 4 / Version 2
    File size                                : 1.46 GiB
    Duration                                 : 1h 39mn
    Overall bit rate                         : 2 100 Kbps
    Movie name                               : Kill.Command.2016.BDRip-AVC.Rip.by.White Smoke.R.G.Resident.mkv
    Encoded date                             : UTC 2016-05-21 03:51:33
    Writing application                      : mkvmerge v6.8.0 ('Theme for Great Cities') 64bit built on Mar  2 2014 21:34:26
    Writing library                          : libebml v1.3.0 + libmatroska v1.4.1

    Video
    ID                                       : 1
    Format                                   : AVC
    Format/Info                              : Advanced Video Codec
    Format profile                           : High@L4.1
    Format settings, CABAC                   : Yes
    Format settings, ReFrames                : 12 frames
    Codec ID                                 : V_MPEG4/ISO/AVC
    Duration                                 : 1h 39mn
    Bit rate                                 : 1 719 Kbps
    Width                                    : 1 024 pixels
    Height                                   : 426 pixels
    Display aspect ratio                     : 2.40:1
    Frame rate                               : 24.000 fps
    Color space                              : YUV
    Chroma subsampling                       : 4:2:0
    Bit depth                                : 8 bits
    Scan type                                : Progressive
    Bits/(Pixel*Frame)                       : 0.164
    Stream size                              : 1.16 GiB (80%)
    Writing library                          : x264 core 148 r2638 7599210
    Encoding settings                        : cabac=1 / ref=12 / deblock=1:-3:-3 / analyse=0x3:0x113 / me=umh / subme=9 / psy=1 / psy_rd=1.00:0.00 / mixed_ref=1 / me_range=32 / chroma_me=1 / trellis=2 / 8x8dct=1 / cqm=0 / deadzone=21,11 / fast_pskip=1 / chroma_qp_offset=-2 / threads=6 / lookahead_threads=1 / sliced_threads=0 / nr=0 / decimate=1 / interlaced=0 / bluray_compat=0 / constrained_intra=0 / bframes=12 / b_pyramid=2 / b_adapt=2 / b_bias=10 / direct=1 / weightb=0 / open_gop=0 / weightp=2 / keyint=230 / keyint_min=24 / scenecut=40 / intra_refresh=0 / rc_lookahead=40 / rc=2pass / mbtree=1 / bitrate=1719 / ratetol=1.0 / qcomp=0.85 / qpmin=0 / qpmax=69 / qpstep=4 / cplxblur=20.0 / qblur=0.5 / ip_ratio=1.40 / aq=1:1.00
    Language                                 : English
    Default                                  : Yes
    Forced                                   : No

    Audio
    ID                                       : 2
    Format                                   : AC-3
    Format/Info                              : Audio Coding 3
    Mode extension                           : CM (complete main)
    Codec ID                                 : A_AC3
    Duration                                 : 1h 39mn
    Bit rate mode                            : Constant
    Bit rate                                 : 384 Kbps
    Channel(s)                               : 6 channels
    Channel positions                        : Front: L C R, Side: L R, LFE
    Sampling rate                            : 48.0 KHz
    Bit depth                                : 16 bits
    Compression mode                         : Lossy
    Delay relative to video                  : 4ms
    Stream size                              : 273 MiB (18%)
    Title                                    : MVO [Parovoz Production]
    Language                                 : Russian
    Default                                  : Yes
    Forced                                   : No

    Menu
    00:00:00.000                             : en:Chapter 1
    00:07:15.750                             : en:Chapter 2
    00:14:09.666                             : en:Chapter 3
    00:23:17.750                             : en:Chapter 4
    00:32:02.208                             : en:Chapter 5
    00:43:22.083                             : en:Chapter 6
    00:50:01.625                             : en:Chapter 7
    00:58:01.833                             : en:Chapter 8
    01:07:32.000                             : en:Chapter 9
    01:13:58.791                             : en:Chapter 10
    01:23:59.333                             : en:Chapter 11
    01:30:35.791                             : en:Chapter 12


    © Оформление by White Smoke pb.wtf



  • Скачать Команда уничтожить через торрент http://i79.fastpic.ru/big/2016/0520/f8/c3ba1e9dbd4a6948991008e0965cfcf8.gif Скачать фильм Команда уничтожить через торрент бесплантно в хорошем качестве Описание: Недалекое будущее. Экспериментальный отряд специальных агентов высаживается на необитаемом острове для прохождения интенсивных ... 8 10 9
    Info! Золотая раздача, скачанное не засчитывается.
    Торрент: Зарегистрирован [2016-05-21 04:25] · скачан: 127 раз
    Статус: T временная
    Размер: 1.46 GB
    Как cкачать? Как скачать Команда уничтожить через торрент | UTorrent



    Последний раз редактировалось: White Smoke (2016-05-21 10:30), всего редактировалось 1 раз

    28-11-2019 20:33  

    Отключить всю рекламу на сайте

    21-05-2016 08:31 Команда уничтожить Скачать торрент  

    Тв3 фильм,но с хорошей графикой на роботах!Если уж совсем нечего смотреть,можно и глянуть!Под водку сойдетpb.wtf



      Дорогой пользователь! Огромная просьба, поблагодарите релизера, оцените раздачу и оставьте свои комментарий, если Вы скачали Команда уничтожить через торрент бесплатно! Внесите свою лепту в развитие PiratBit!
      Комментировать посты могут только пользователи прошедшие не сложную регистрацию
      Показать сообщения:    

      Команда уничтожить через торрент
      Скачать бесплатно Команда уничтожить
      Команда уничтожить скачать торрент
      Команда уничтожить смотреть онлайн
      Cкачать фильм Команда уничтожить бесплатно
      Команда уничтожить скачать торрент в хорошем качестве
      Команда уничтожить смотреть онлайн бесплатно в хорошем качестве


      Вы не можете начинать темы
      Вы не можете отвечать на сообщения
      Вы не можете редактировать свои сообщения
      Вы не можете удалять свои сообщения
      Вы не можете голосовать в опросах
      Вы не можете прикреплять файлы к сообщениям
      Вы можете скачивать файлы