новый адрес пиратбит piratbit
Мега распродажа FORZA HORIZON 4 ULTIMATE+ВСЕ DLC+ОНЛАЙН всего за 499р. 349 руб. (супер цена). Внимание количество ограничено!!!

iTunes

1+1

iTunes

мы

iTunes

1

iTunes

Чернобыль

iTunes

Ральф против интернета

Лицензия

ПШазам

Лицензия

Игра престолов

Лицензия

30
pack

ВАЖНО

!!Акция!!

Alien_RageХит недели

RePack

Resident Evil 21

ИГРА 18+

pack

RePack

Metro:Exodus

!!Акция!!

Alien_Rage

RePack

fifa19

RePack

Assassins Creed: Odyssey

RePack

NEED FOR SPEED™ PAYBACK

3 сезон

9 сезон

Бесстыжие 9 сезон

Все сериалы

все сериалы на PB.wtf

RePack

FAR CRY 5
Ребята, катастрофически не хватает 1900р. для оплаты серверов за Октябрь (всвязи с блокировками трафик упал в 3 раза), 1-2р., выручайте.
  

Овод (Александр Файнциммер) [1955, СССР, боевик, драма, история, SATRip от AVP Studio] pb.wtf

Овод через торрент pb.wtf

Размер: 1.46 GB | Добавлен: 3 года 5 мес. назад | Торрент скачан:15 раз
Скачать  

21-05-2016 08:09 Овод Скачать торрент  

Овод
Страна: СССР
Производство: Ленфильм

Жанр: боевик, драма, история
Год выпуска: 1955
Продолжительность: 01:36:03

Перевод: Не требуется
Cубтитры: нет
Оригинальная аудиодорожка: русский

Режиссер: Александр Файнциммер

В ролях:
Олег Стриженов, Марианна Стриженова, Николай Симонов, Владимир Этуш, Семён Свашенко, Павел Усовниченко, Вадим Медведев, Владимир Честноков, Рубен Симонов, Антоний Ходурский, Анна Лисянская, Григорий Шпигель, Елена Юнгер, Борис Дмоховский, Яков Малютин...
Полный список актёров

Описание:
Фильм поставлен по мотивам романа Этель Лилиан Войнич и рассказывает о борьбе итальянских патриотов против австрийских оккупантов за свою независимость.
Режиссер А. Файнциммер воспроизводил события популярного романа, сгущая его романтические краски, акцентируя роковые случайности, мелодраматические эффекты.

Источник: DVB
Качество видео: SATRip
Формат видео: AVI

Видео: 704x528 (4:3), 25 fps, XviD ~ 1970 kbps avg, 0.212 bit/pixel
Аудио: 48 kHz, Dolby Digital AC3 2.0, 192 kbps

Раздача от:
Общее
Полное имя : Ovod.1955.SATRip_[New-team]_by_AVP_Studio.avi
Формат : AVI
Формат/Информация : Audio Video Interleave
Размер файла : 1,46 Гбайт
Продолжительность : 1 ч. 36 м.
Общий поток : 2172 Кбит/сек
Программа кодирования : VirtualDubMod 1.5.10.3 | www.virtualdub-fr.org || (build 2550/release)
Библиотека кодирования : VirtualDubMod build 2550/release

Видео
Идентификатор : 0
Формат : MPEG-4 Visual
Профиль формата : Advanced Simple@L5
Параметр BVOP формата : 1
Параметр QPel формата : Нет
Параметр GMC формата : Без точки перехода
Параметр матрицы формата : Выборочная
Идентификатор кодека : XVID
Идентификатор кодека/Подсказка : XviD
Продолжительность : 1 ч. 36 м.
Битрейт : 1970 Кбит/сек
Ширина : 704 пикселя
Высота : 528 пикселей
Соотношение сторон : 4:3
Частота кадров : 25,000 кадров/сек
Цветовое пространство : YUV
Субдискретизация насыщенности : 4:2:0
Битовая глубина : 8 бит
Тип развёртки : Прогрессивная
Метод сжатия : С потерями
Бит/(Пиксели*Кадры) : 0.212
Размер потока : 1,32 Гбайт (91%)
Библиотека кодирования : XviD 1.2.1 (UTC 2008-12-04)

Аудио
Идентификатор : 1
Формат : AC-3
Формат/Информация : Audio Coding 3
Расширение режима : CM (complete main)
Параметр Endianness формата : Big
Идентификатор кодека : 2000
Продолжительность : 1 ч. 36 м.
Вид битрейта : Постоянный
Битрейт : 192 Кбит/сек
Каналы : 2 канала
Расположение каналов : Front: L R
Частота : 48,0 КГц
Частота кадров : 31,250 кадров/сек (1536 spf)
Метод сжатия : С потерями
Размер потока : 132 Мбайт (9%)
Выравнивание : Разделение по промежуткам
Продолжительность промежутка : 40 мс. (1,00 видеокадр)
Время предзагрузки промежутка : 500 мс
pb.wtf



Скачать Овод через торрент http://s017.radikal.ru/i441/1605/59/de69002c4973.png Скачать фильм Овод через торрент бесплантно в хорошем качестве Описание:Фильм поставлен по мотивам романа Этель Лилиан Войнич и рассказывает о борьбе итальянских патриотов против австрийских оккупантов ... 5 10 1
Info! Золотая раздача, скачанное не засчитывается.
Торрент: Зарегистрирован [2016-05-21 08:09] · скачан: 15 раз
Статус: √ проверено
Размер: 1.46 GB
Как cкачать? Как скачать Овод через торрент | qTorrent

% Раздел Тема Автор DL S | L
Видеоуроки [ 6.8 GB ] Пчеловодство. Видеокурс [2010 Видеоурок DVDRip] bersenev Скачать
2 | 0
# Видеоуроки [ 1.15 GB ] Администрирование 1С с нуля. Подробное пошаговое руководство demo-версия [2014 Видеокурс BDRip 1080p] Angelus666 Скачать
3 | 0
Зарубежные сериалы [ 12.14 GB ] Руководство по выживанию от Купера Баррэта / Cooper Barrett's Guide to Surviving Life / Сезон: 1 / Серии 1-13 из 13 [2016 WEB-DL 1080p] MVO BaibaKo MicroCharmelle Скачать
1 | 0
Порно фильмы с русским переводом [ 1.27 GB ] Бортпроводницы / Stewardesses / Hôtesses de l'Air [2014 Feature Foreign Straight Oral Group Sex Threesome] закадровый sheker187 Скачать
1 | 0
T Релизы по Парсеру [Игры, Сериалы и Фильмы и другое...] [ 1.37 GB ] Пресноводный / Freshwater [2016 HDRip] MVO Ворон Скачать
1 | 0
Кино СССР [ 1.46 GB ] Овод [1955 СССР история SATRip-AVC от AVP Studio] AVP Studio Скачать
1 | 0
Кино СССР [ 743 MB ] Овод [1955 СССР история SATRip от AVP Studio] AVP Studio Скачать
1 | 0


>> Регистрируемся здесь <<






Отзывы и комментарии о схеме читаем и пишем здесь: ---> Отзывы и комментарии о схеме

Новые благодарочки в телеграм довольных пользователей:
скриншот   скриншот   скриншот   скриншот   скриншот
    Дорогой пользователь! Огромная просьба, поблагодарите релизера, оцените раздачу и оставьте свои комментарий, если Вы скачали Овод через торрент бесплатно! Внесите свою лепту в развитие PiratBit!
    Комментировать посты могут только пользователи прошедшие не сложную регистрацию
    Показать сообщения:    

    Овод через торрент
    Скачать бесплатно Овод
    Овод скачать торрент
    Овод смотреть онлайн
    Cкачать фильм Овод бесплатно
    Овод скачать торрент в хорошем качестве
    Овод смотреть онлайн бесплатно в хорошем качестве


    Вы не можете начинать темы
    Вы не можете отвечать на сообщения
    Вы не можете редактировать свои сообщения
    Вы не можете удалять свои сообщения
    Вы не можете голосовать в опросах
    Вы не можете прикреплять файлы к сообщениям
    Вы можете скачивать файлы