Доктор Стрэндж

Лицензия

Добыча

Дубляж

Уэнсдэй

1 сезон

Тор

Дубляж

В эфире

Дубляж

Там, где раки поют

MVO

Властелин колец

1 сезон

Deluxe

pack

Рекомендуем

30

Пиратка

ВАЖНО

ВАЖНО

Ghostwire

Пиратка

jed

RePack

nioh2

RePack

RDR2

RePack

NEED FOR SPEED™ PAYBACK

RePack

скачать торрент

Кинопоиск HD

Острые козырьки 6 сезон

6 сезон

FAR CRY 6

RePack

скачать торрент

Лицензия

скачать торрент

MVO

1

1 сезон

скачать торрент

1 сезон

скачать торрент

Лицензия

  

Гордость и предубеждение и зомби / Pride and Prejudice and Zombies (Бёрр Стирс ) [2015, ужасы, боевик, мелодрама, BDRip 1080p от NNNB] Дубляж (Лицензия)

Гордость и предубеждение и зомби через торрент pb.wtf

Размер: 7.66 GB | Добавлен: 6 лет 6 мес. назад | Торрент скачан:494 раза
Смотреть онлайн | Скачать   

21-05-2016 08:39 Гордость и предубеждение и зомби Скачать торрент  

Гордость и предубеждение и зомби / Pride and Prejudice and Zombies
«'It is a truth universally acknowledged that a zombie in possession of brains must be in want of more brains.' - Jane Austen and Seth Grahame-Smith»


Год выпуска: 2016
Страна: США, Великобритания
Жанр: ужасы, боевик, мелодрама
Продолжительность: 01:49:00
Перевод: Дублированный (Лицензия)
Субтитры: английские, английские (SDH)
Режиссер: Бёрр Стирс
В ролях: Лили Джеймс , Сэм Райли , Белла Хиткот , Элли Бамбер , Милли Брэйди , Сьюки Уотерхаус , Дуглас Бут , Сэлли Филлипс , Чарльз Дэнс , Джек Хьюстон , Лина Хиди , Мэтт Смит
Описание:
Англия, XIX век. Элизабет Беннет и её сестры вынуждены противостоять заполонившим Англию ходячим мертвецам, а так же девушки сталкиваются с давлением необходимости найти себе мужей.

PG-13 - Детям до 13 лет просмотр не желателен
Качество: BDRip 1080p
Контейнер (Расширение): MKV
Видео: 1920x800, 8766 Кбит/сек, 23,976 кадр/сек, 0,238 Бит/[Пиксели*Кадры]
Аудио №1: русский / AC3 / 5.1 / 48 kHz / 448 kbps / 16 bit |Дублированный|
Аудио №2: английский / AC3 / 5.1 / 48 kHz / 640 kbps / 16 bit
Навигация по главам(Чаптеры): есть
Видеоряд: [email protected]Релиз от: Сообщество:

Код:

Format                                   : Matroska
Format version                           : Version 2
File size                                : 7.66 GiB
Duration                                 : 1h 49mn
Overall bit rate                         : 10.1 Mbps
Movie name                               : Pride.And.Prejudice.And.Zombies.(2016).BDRip.1080p.[NNNB]
Encoded date                             : UTC 2016-05-21 08:28:50
Writing application                      : mkvmerge v5.8.0 ('No Sleep / Pillow') built on Sep  2 2012 15:37:04
Writing library                          : libebml v1.2.3 + libmatroska v1.3.0

Video
ID                                       : 1
Format                                   : AVC
Format/Info                              : Advanced Video Codec
Format profile                           : [email protected]
Format settings, CABAC                   : Yes
Format settings, ReFrames                : 5 frames
Codec ID                                 : V_MPEG4/ISO/AVC
Duration                                 : 1h 49mn
Bit rate                                 : 8 767 Kbps
Width                                    : 1 920 pixels
Height                                   : 800 pixels
Display aspect ratio                     : 2.40:1
Frame rate                               : 23.976 fps
Color space                              : YUV
Chroma subsampling                       : 4:2:0
Bit depth                                : 8 bits
Scan type                                : Progressive
Bits/(Pixel*Frame)                       : 0.238
Stream size                              : 6.68 GiB (87%)
Title                                    : Pride.And.Prejudice.And.Zombies.(2016).BDRip.1080p.[NNNB]
Writing library                          : x264 core 142 r2431+42 c69a006 tMod [[email protected] X86_64]
Encoding settings                        : cabac=1 / ref=5 / deblock=1:-3:-3 / analyse=0x3:0x133 / me=umh / subme=11 / psy=1 / fade_compensate=0.00 / psy_rd=0.90:0.00 / mixed_ref=1 / me_range=32 / chroma_me=1 / trellis=2 / 8x8dct=1 / cqm=0 / deadzone=21,11 / fast_pskip=0 / chroma_qp_offset=-2 / threads=12 / lookahead_threads=2 / sliced_threads=0 / nr=0 / decimate=0 / interlaced=0 / bluray_compat=0 / constrained_intra=0 / fgo=0 / bframes=8 / b_pyramid=2 / b_adapt=2 / b_bias=0 / direct=3 / weightb=1 / open_gop=0 / weightp=2 / keyint=240 / keyint_min=23 / scenecut=40 / intra_refresh=0 / rc_lookahead=60 / rc=crf / mbtree=0 / crf=16.3000 / qcomp=0.60 / qpmin=0:0:0 / qpmax=69:69:69 / qpstep=4 / vbv_maxrate=40000 / vbv_bufsize=30000 / crf_max=0.0 / nal_hrd=none / filler=0 / ip_ratio=1.40 / pb_ratio=1.30 / aq=1:0.90 / aq-sensitivity=10.00 / aq-factor=1.00:1.00:1.00 / aq2=0 / aq3=0
Language                                 : English
Default                                  : Yes
Forced                                   : No

Audio #1
ID                                       : 2
Format                                   : AC-3
Format/Info                              : Audio Coding 3
Mode extension                           : CM (complete main)
Codec ID                                 : A_AC3
Duration                                 : 1h 49mn
Bit rate mode                            : Constant
Bit rate                                 : 448 Kbps
Channel(s)                               : 6 channels
Channel positions                        : Front: L C R, Side: L R, LFE
Sampling rate                            : 48.0 KHz
Bit depth                                : 16 bits
Compression mode                         : Lossy
Stream size                              : 349 MiB (4%)
Title                                    : Дубляж
Language                                 : Russian
Default                                  : Yes
Forced                                   : No

Audio #2
ID                                       : 3
Format                                   : AC-3
Format/Info                              : Audio Coding 3
Mode extension                           : CM (complete main)
Codec ID                                 : A_AC3
Duration                                 : 1h 49mn
Bit rate mode                            : Constant
Bit rate                                 : 640 Kbps
Channel(s)                               : 6 channels
Channel positions                        : Front: L C R, Side: L R, LFE
Sampling rate                            : 48.0 KHz
Bit depth                                : 16 bits
Compression mode                         : Lossy
Stream size                              : 499 MiB (6%)
Language                                 : English
Default                                  : No
Forced                                   : No

Text #1
ID                                       : 4
Format                                   : UTF-8
Codec ID                                 : S_TEXT/UTF8
Codec ID/Info                            : UTF-8 Plain Text
Language                                 : English
Default                                  : No
Forced                                   : No

Text #2
ID                                       : 5
Format                                   : UTF-8
Codec ID                                 : S_TEXT/UTF8
Codec ID/Info                            : UTF-8 Plain Text
Title                                    : SDH
Language                                 : English
Default                                  : No
Forced                                   : No

Menu
00:00:00.000                             : en:Chapter 01
00:06:41.317                             : en:Chapter 02
00:11:50.251                             : en:Chapter 03
00:17:59.995                             : en:Chapter 04
00:24:06.445                             : en:Chapter 05
00:31:53.036                             : en:Chapter 06
00:37:43.594                             : en:Chapter 07
00:44:22.242                             : en:Chapter 08
00:52:06.623                             : en:Chapter 09
00:59:28.606                             : en:Chapter 10
01:05:45.232                             : en:Chapter 11
01:11:16.981                             : en:Chapter 12
01:18:40.674                             : en:Chapter 13
01:25:03.348                             : en:Chapter 14
01:30:18.162                             : en:Chapter 15
01:35:49.744                             : en:Chapter 16




Скачать Гордость и предубеждение и зомби через торрент http://i78.fastpic.ru/big/2016/0521/6e/dca460d3292c96d4ba5ca9ece7e2176e.png Скачать, смотреть онлайн Гордость и предубеждение и зомби бесплантно в хорошем качестве Описание:Англия, XIX век. Элизабет Беннет и её сестры вынуждены противостоять заполонившим Англию ходячим мертвецам, а так же девушки ... 9 10 11
Info! Золотая раздача, скачанное не засчитывается.
Торрент: Зарегистрирован [2016-05-21 08:39] · скачан: 494 раз
Статус: √ проверено
Размер: 7.66 GB
Как cкачать? Как скачать Гордость и предубеждение и зомби через торрент | UTorrent

% Раздел Тема Автор DL S | L
Ultra HD (UHD: 2K, 4K, 8K) [ 54.1 GB ] Гордость и предубеждение и зомби / Pride and Prejudice and Zombies | Лицензия | 2160p sheker187 Скачать
1 | 0
Фильмы 2016 [DVDrip, WEB-DLRip, HDrip] (DUB, MVO) [ 2.18 GB ] Гордость и предубеждение и зомби / Pride and Prejudice and Zombies | Лицензия | BDRip-AVC от sokol_ok sokol_ok Скачать
2 | 0
Фильмы 2016 [DVDrip, WEB-DLRip, HDrip] (DUB, MVO) [ 2.19 GB ] Гордость и предубеждение и зомби / Pride and Prejudice and Zombies | Лицензия | BDRip Twi7ter Скачать
1 | 0
Фильмы 2016 [DVDrip, WEB-DLRip, HDrip] (DUB, MVO) [ 1.46 GB ] Гордость и предубеждение и зомби / Pride and Prejudice and Zombies | Лицензия | BDRip Twi7ter Скачать
1 | 0
Фильмы 2016 [DVDrip, WEB-DLRip, HDrip] (DUB, MVO) [ 1.46 GB ] Гордость и предубеждение и зомби / Pride and Prejudice and Zombies | Лицензия | BDRip-AVC от sokol_ok sokol_ok Скачать
2 | 0
Фильмы 2016 [DVDrip, WEB-DLRip, HDrip] (DUB, MVO) [ 2.05 GB ] Гордость и предубеждение и зомби / Pride and Prejudice and Zombies | Лицензия | HDRip killermax2013 Скачать
1 | 0
R.G. Resident & PiratVoice - Фильмы, Видео [ 2.03 GB ] Гордость и предубеждение и зомби / Pride and Prejudice and Zombies | Лицензия R.G.Resident | BDRip-AVC Хорват Скачать
1 | 0

28-11-2019 20:33  


Отключить вcю реклaмy на сайте, в т.ч. и в плеере онлайн просмотра!

20-04-2017 13:26 Гордость и предубеждение и зомби Скачать торрент  

не плохой фильм



    Дорогой пользователь! Огромная просьба, поблагодарите релизера, оцените раздачу и оставьте свои комментарий, если Вы скачали Гордость и предубеждение и зомби через торрент бесплатно!!
    Комментировать посты могут только пользователи прошедшие не сложную регистрацию
    Показать сообщения:    


    Гордость и предубеждение и зомби через торрент
    Скачать бесплатно Гордость и предубеждение и зомби
    Гордость и предубеждение и зомби скачать торрент
    Гордость и предубеждение и зомби смотреть онлайн
    Cкачать фильм Гордость и предубеждение и зомби бесплатно
    Гордость и предубеждение и зомби скачать торрент в хорошем качестве
    Гордость и предубеждение и зомби смотреть онлайн бесплатно в хорошем качестве
    Вы не можете начинать темы
    Вы не можете отвечать на сообщения
    Вы не можете редактировать свои сообщения
    Вы не можете удалять свои сообщения
    Вы не можете голосовать в опросах
    Вы не можете прикреплять файлы к сообщениям
    Вы можете скачивать файлы
    Гордость и предубеждение и зомби / Pride and Prejudice and Zombies [2015, ужасы, боевик, мелодрама, BDRip 1080p от NNNB] Дубляж смотреть онлайн, скачать торрент picoco.icu