Ссылка на приватное зеркало нашего сайта всего за 1$. Внимание количество ограничено!!!

2 сезон

iTunes

1 сезон

1

2 сезон

2 сезон

iTunes

1 сезон

RePack

30

Ultimate

ВАЖНО

ИГРА 18+

pack

RePack

MK11
pack

Забери бонус

RePack

jed

!!Акция!!

Alien_Rage

RePack

fifa19

RePack

Assassins Creed: Odyssey

RePack

NEED FOR SPEED™ PAYBACK

4 сезон

9 сезон

Бесстыжие 9 сезон

Все сериалы

все сериалы на PB.wtf

RePack

FAR CRY 5
  

Леди Динамит / Lady Dynamite / Сезон: 1 / Серии 1-6 из 13 (Роберт Коэн, Билл Бенц, Бенжамин Берман, Дэниел Грэй Лонгино) [2016 г., комедия, WEBRip-AVC] MVO [BaibaKo] pb.wtf

Леди Динамит через торрент pb.wtf

Размер: 3.44 GB | Добавлен: 4 года 6 мес. назад | Торрент скачан:1 раз
Скачать  

22-05-2016 03:14 Леди Динамит Скачать торрент  

Леди Динамит / Lady Dynamite

  • Год выпуска: 2016
  • Страна: США
  • Жанр: комедия
  • Продолжительность: ~ 00:26:00 (Серия)
  • Перевод: Профессиональный многоголосый закадровый [BaibaKo]
  • Примечание: Рекламный ролик вырезан!!
  • Режиссер: Роберт Коэн, Билл Бенц, Бенжамин Берман, Дэниел Грэй Лонгино
  • В ролях: Мария Бэмфорд, Фред Меламед, Брэндон Рут и др.


  • Оптимистичная актриса по имени Мария искренне старается принять себя такой, какая она есть. Стремясь найти внутренний баланс, героиня заботится о себе и делает разнообразные попытки наладить связь с окружающим миром.
  • Качество: WEBRip-AVC
  • Формат: :MPEG-4
  • Видео кодек: AVC
  • Аудио кодек: AC3
  • Видео: 2200 Кбит/сек, 1024*536 (1,897), в 23,976 кадра/сек, AVC
  • Аудио №1: Русский 384 Кбит/сек, 48,0 КГц, 16 бит, 6 каналов, AC-3 |[BaibaKo]|
  • Аудио №2: Английский 384 Кбит/сек, 48,0 КГц, 16 бит, 6 каналов, AC-3
  • Релиз от: GEKADOL

    Код:

    Внимание! Раздача ведётся путём добавления новых серий; при каждом добавлении создаётся новый торрент. Чтобы начать докачку новой серии, пользователям необходимо сделать следующее:
    (1) остановить скачивание,
    (2) удалить старый торрент у себя из клиента (старые серии удалять не надо),
    (3) скачать новый торрент и запустить его у себя в клиенте вместо старого, при этом указать клиенту путь в старую папку куда и должно происходить скачивание новых серий.
    Ваш клиент при этом должен произвести хеширование (проверку) старой папки (если не производит сам - помогите ему сделать это), и будет докачивать только те серии которых у вас ещё нет. Старые серии при этом не удаляются, а продолжают раздаваться!
    Eсли вы уже удалили старые серии, то предотвратить повторную закачку старых серий можно, отжав галочку в соответствующих местах при запуске нового торрента. По возможности, желательно не удалять старые серии как можно дольше чтобы релизёр не столько продолжал раздавать старые серии, а смог сконцентрироваться на новых.


    Код:

    Общее
    Полное имя                               : H:\Леди Динамит (Lady Dynamite)\Lady.Dynamite.s01e01.WEBRip-AVC.Rus.Eng.BaibaKo.tv.mp4
    Формат                                   : MPEG-4
    Профиль формата                          : Base Media
    Идентификатор кодека                     : isom (isom/iso2/avc1/mp41)
    Размер файла                             : 697 Мбайт
    Продолжительность                        : 33 м.
    Общий поток                              : 2891 Кбит/сек
    Программа кодирования                    : XviD4PSP 7.0.263 DAILY
    HDVideo                                  : Yes
    encoding_info                            : MATROSKA / WEBM > MP4 / H264 > X264 CBR 2200kbps HQ / AC3 > AC3 CBR 384kbps / AC3 > AC3 CBR 384kbps

    Видео
    Идентификатор                            : 1
    Формат                                   : AVC
    Формат/Информация                        : Advanced Video Codec
    Профиль формата                          : High@L3.1
    Параметр CABAC формата                   : Да
    Параметр ReFrames формата                : 4 кадра
    Идентификатор кодека                     : avc1
    Идентификатор кодека/Информация          : Advanced Video Coding
    Продолжительность                        : 33 м.
    Битрейт                                  : 2200 Кбит/сек
    Ширина                                   : 1024 пикселя
    Высота                                   : 536 пикселей
    Соотношение сторон                       : 1,897
    Режим частоты кадров                     : Постоянный
    Частота кадров                           : 23,976 (24000/1001) кадра/сек
    Цветовое пространство                    : YUV
    Субдискретизация насыщенности            : 4:2:0
    Битовая глубина                          : 8 бит
    Тип развёртки                            : Прогрессивная
    Бит/(Пиксели*Кадры)                      : 0.167
    Размер потока                            : 511 Мбайт (73%)
    Библиотека кодирования                   : x264 core 148 r2694M 3b70645
    Настройки программы                      : cabac=1 / ref=3 / deblock=1:-1:-1 / analyse=0x3:0x133 / me=hex / subme=7 / psy=1 / psy_rd=1.00:0.20 / mixed_ref=1 / me_range=16 / chroma_me=1 / trellis=1 / 8x8dct=1 / cqm=0 / deadzone=21,11 / fast_pskip=1 / chroma_qp_offset=-3 / threads=5 / lookahead_threads=1 / sliced_threads=0 / nr=0 / decimate=1 / interlaced=0 / bluray_compat=0 / constrained_intra=0 / bframes=3 / b_pyramid=2 / b_adapt=2 / b_bias=0 / direct=3 / weightb=1 / open_gop=0 / weightp=2 / keyint=230 / keyint_min=23 / scenecut=40 / intra_refresh=0 / rc_lookahead=40 / rc=cbr / mbtree=1 / bitrate=2200 / ratetol=1.0 / qcomp=0.60 / qpmin=0 / qpmax=69 / qpstep=4 / vbv_maxrate=2200 / vbv_bufsize=2200 / nal_hrd=none / filler=0 / ip_ratio=1.40 / aq=1:1.00

    Аудио #1
    Идентификатор                            : 2
    Формат                                   : AC-3
    Формат/Информация                        : Audio Coding 3
    Расширение режима                        : CM (complete main)
    Параметр Endianness формата              : Big
    Идентификатор кодека                     : ac-3
    Продолжительность                        : 33 м.
    Вид битрейта                             : Постоянный
    Битрейт                                  : 384 Кбит/сек
    Каналы                                   : 6 каналов
    Расположение каналов                     : Front: L C R, Side: L R, LFE
    Частота                                  : 48,0 КГц
    Частота кадров                           : 31,250 кадров/сек (1536 spf)
    Битовая глубина                          : 16 бит
    Метод сжатия                             : С потерями
    Размер потока                            : 92,6 Мбайт (13%)
    Язык                                     : Russian
    Default                                  : Да
    Alternate group                          : 1

    Аудио #2
    Идентификатор                            : 3
    Формат                                   : AC-3
    Формат/Информация                        : Audio Coding 3
    Расширение режима                        : CM (complete main)
    Параметр Endianness формата              : Big
    Идентификатор кодека                     : ac-3
    Продолжительность                        : 33 м.
    Вид битрейта                             : Постоянный
    Битрейт                                  : 384 Кбит/сек
    Каналы                                   : 6 каналов
    Расположение каналов                     : Front: L C R, Side: L R, LFE
    Частота                                  : 48,0 КГц
    Частота кадров                           : 31,250 кадров/сек (1536 spf)
    Битовая глубина                          : 16 бит
    Метод сжатия                             : С потерями
    Размер потока                            : 92,6 Мбайт (13%)
    Язык                                     : English
    Default                                  : Нет
    Alternate group                          : 1




    ВНИМАНИЕ! Релиз без цензуры!
    Скриншоты:
    скриншот   скриншот   скриншот   скриншот   скриншот   скриншот   скриншот  
    скриншот  

    Раздача ведётся путём добавления новых серий. Добавлена 6 серия (23.05.2016).Просьба перекачать торрент файл.

    pb.wtf



  • Скачать Леди Динамит через торрент http://pic.kartinco.top/images/11/8h18e.jpg Скачать фильм Леди Динамит через торрент бесплантно в хорошем качестве qw.png Оптимистичная актриса по имени Мария искренне старается принять себя такой, какая она есть. Стремясь найти внутренний баланс, ... 10 10 3
    Info! Серебряная раздача, засчитывается только 50% скачанного.
    Торрент: Зарегистрирован [2016-05-23 01:26] · скачан: 1 раз
    Статус: √ проверено
    Размер: 3.44 GB
    Как cкачать? Как скачать Леди Динамит через торрент | qTorrent

    28-11-2019 20:33  

    Отключить всю рекламу на сайте

      Дорогой пользователь! Огромная просьба, поблагодарите релизера, оцените раздачу и оставьте свои комментарий, если Вы скачали Леди Динамит через торрент бесплатно! Внесите свою лепту в развитие PiratBit!
      Комментировать посты могут только пользователи прошедшие не сложную регистрацию
      Показать сообщения:    

      Леди Динамит через торрент
      Скачать бесплатно Леди Динамит
      Леди Динамит скачать торрент
      Леди Динамит смотреть онлайн
      Cкачать фильм Леди Динамит бесплатно
      Леди Динамит скачать торрент в хорошем качестве
      Леди Динамит смотреть онлайн бесплатно в хорошем качестве


      Вы не можете начинать темы
      Вы не можете отвечать на сообщения
      Вы не можете редактировать свои сообщения
      Вы не можете удалять свои сообщения
      Вы не можете голосовать в опросах
      Вы не можете прикреплять файлы к сообщениям
      Вы можете скачивать файлы