Ссылка на приватное зеркало всего за 1$. Внимание количество ограничено!!!

OK

1+1

iTunes

мы

OK

1

WEB-DLRip

Джокер

Пифагор

Ведьмак / The Witcher сериал

Лицензия

ПШазам

ОК

Оно 2

iTunes

30
pack

Вам бонус

ВАЖНО

!!Акция!!

Alien_RageХит недели

RePack

Resident Evil 21

ИГРА 18+

pack

RePack

jed

!!Акция!!

Alien_Rage

RePack

fifa19

RePack

Assassins Creed: Odyssey

RePack

NEED FOR SPEED™ PAYBACK

4 сезон

9 сезон

Бесстыжие 9 сезон

Все сериалы

все сериалы на PB.wtf

RePack

FAR CRY 5
  

Запретная Зона 3D / Bunker of the Dead (Маттиас Олоф Ейх) [2015, Ужасы, боевик, комедия HDRip ] DUB [Чистый звук] (Без рекламы) pb.wtf

Запретная Зона 3D через торрент pb.wtf

Размер: 1.37 GB | Добавлен: 3 года 7 мес. назад | Торрент скачан:234 раза
Скачать  

22-05-2016 14:23 Запретная Зона 3D Скачать торрент  


Запретная Зона 3D / Bunker of the Dead«А зомби здесь тихие»
Год выпуска » 2015
Страна » Германия
Жанр » Ужасы, боевик, комедия
Продолжительность » 01:13:54
Перевод » Дублированный • Чистый звук
Субтитры » Нет

В ролях
» Сарита Брэдли, Патрик Янс, Кристиан Джангуирт, Peter Koller, Tobias Lampe, Хуан Карлос Лопез, Эстер Мааб, Christoper Lee Meadows, Андреас Пейп, Aciel Martinez Pol

Режиссёр
» Маттиас Олоф Ейх

» Двое друзей Пол и Маркус находят в одном из старых дневников описание расположения секретного подземного бункера времен Второй Мировой войны. Вооружившись специальным 3D девайсом, передающим изображение «от первого лица» один из них отправляется на место, а второй помогает на расстоянии, отслеживая его перемещения и давая правильные советы.

Вход в бункер находится на территории американской военной базы. С опасными приключения Пол проникает в подземелье. Правда он еще не знает, что его визит не остался незамеченным. И речь идет не только о военных, теперь за ним следит нечто мрачное и зловещее, находившееся в заточении более 70 лет…

• Качество » HDRip [Рип с BDRip 720p]
• Формат » AVI
• Видео кодек » XviD
• Аудио кодек » AC3
• Видео » XviD at 1974 kb/s, 720x304 at 23,976 fps
• Аудио » Русский (AC-3 / 2 ch / 192 kbps / 16 bit / 48,0 КГц )
• Аудио » Английский (AC-3 / 6 ch / 384 kbps / 48,0 КГц / 16 bit)



Премьера (РФ):8 февраля 2016, «Кинологистика» 3D

Бюджет:€525 000

Сборы в России:$8 828

Общее
Полное имя : C:\Users\DRON & LeXuZ\Desktop\Zapretnaya.zona.2015.D.HDRip.avi
Формат : AVI
Формат/Информация : Audio Video Interleave
Размер файла : 1,37 Гбайт
Продолжительность : 1 ч. 16 м.
Общий поток : 2564 Кбит/сек
Программа кодирования : VirtualDubMod 1.5.10.2 (build 2540/release)
Библиотека кодирования : VirtualDubMod build 2540/release

Видео
Идентификатор : 0
Формат : MPEG-4 Visual
Профиль формата : Advanced Simple@L5
Параметр BVOP формата : 2
Параметр QPel формата : Нет
Параметр GMC формата : Без точки перехода
Параметр матрицы формата : Default (MPEG)
Идентификатор кодека : XVID
Идентификатор кодека/Подсказка : XviD
Продолжительность : 1 ч. 16 м.
Битрейт : 1974 Кбит/сек
Ширина : 720 пикселей
Высота : 304 пикселя
Соотношение сторон : 2,35:1
Частота кадров : 23,976 кадра/сек
Цветовое пространство : YUV
Субдискретизация насыщенности : 4:2:0
Битовая глубина : 8 бит
Тип развёртки : Прогрессивная
Метод сжатия : С потерями
Бит/(Пиксели*Кадры) : 0.376
Размер потока : 1,05 Гбайт (77%)
Библиотека кодирования : XviD 1.2.1 (UTC 2008-12-04)

Аудио #1
Идентификатор : 1
Формат : AC-3
Формат/Информация : Audio Coding 3
Расширение режима : CM (complete main)
Параметр Endianness формата : Big
Идентификатор кодека : 2000
Продолжительность : 1 ч. 16 м.
Вид битрейта : Постоянный
Битрейт : 192 Кбит/сек
Каналы : 2 канала
Расположение каналов : Front: L R
Частота : 48,0 КГц
Битовая глубина : 16 бит
Метод сжатия : С потерями
Размер потока : 105 Мбайт (7%)
Выравнивание : Разделение по промежуткам
Продолжительность промежутка : 42 мс. (1,00 видеокадр)
Время предзагрузки промежутка : 500 мс.

Аудио #2
Идентификатор : 2
Формат : AC-3
Формат/Информация : Audio Coding 3
Расширение режима : CM (complete main)
Параметр Endianness формата : Big
Идентификатор кодека : 2000
Продолжительность : 1 ч. 16 м.
Вид битрейта : Постоянный
Битрейт : 384 Кбит/сек
Каналы : 6 каналов
Расположение каналов : Front: L C R, Side: L R, LFE
Частота : 48,0 КГц
Битовая глубина : 16 бит
Метод сжатия : С потерями
Размер потока : 210 Мбайт (15%)
Выравнивание : Разделение по промежуткам
Продолжительность промежутка : 42 мс. (1,00 видеокадр)
Время предзагрузки промежутка : 500 мс.
[/code]
скриншот   скриншот   скриншот   скриншот   скриншот   скриншот  скриншот  
pb.wtf



Скачать Запретная Зона 3D через торрент http://pic1.kartinco.top/images/10/qjilv.jpg Скачать фильм Запретная Зона 3D через торрент бесплантно в хорошем качестве В ролях » Сарита Брэдли, Патрик Янс, Кристиан Джангуирт, Peter Koller, Tobias Lampe, Хуан Карлос Лопез, Эстер Мааб, Christoper Lee Meadows, ... 8.5 10 15
Торрент: Зарегистрирован [2016-05-22 14:23] · скачан: 234 раз
Статус: T временная
Размер: 1.37 GB
Как cкачать? Как скачать Запретная Зона 3D через торрент | qTorrent

% Раздел Тема Автор DL S | L
3D Фильмы [ 9.87 GB ] Запретная Зона 3D в 3Д / Bunker of the Dead 3D [2015 BDRip 1080p] OverUnder / Вертикальная стереопара serega768 Скачать
1 | 0
T 3D Фильмы [ 6.89 GB ] Запретная Зона 3D / Bunker of the Dead [2015 BDRip 1080p] [Half OverUnder / Вертикальная анаморфная стереопара] DUB [Line] bober100 Скачать
1 | 0
T Фильмы [HD 720p, 1080p] (Хороший звук DUB, MVO) [ 4.17 GB ] Запретная Зона 3D / Bunker of the Dead [2015 BDRip 720p] Dub [Чистый звук] $-DRON-$ Скачать
1 | 0

28-11-2019 20:33  

Отключить всю рекламу на сайте

22-05-2016 20:48 Запретная Зона 3D Скачать торрент  

"находят в одном из старых дневников описание расположения секретного подземного бункера времен Второй Мировой войны..." "...на территории американской военной базы." С зомбо-гитлеровцами... Ага... Сценарий от бога.pb.wtf



    Дорогой пользователь! Огромная просьба, поблагодарите релизера, оцените раздачу и оставьте свои комментарий, если Вы скачали Запретная Зона 3D через торрент бесплатно! Внесите свою лепту в развитие PiratBit!
    Комментировать посты могут только пользователи прошедшие не сложную регистрацию
    Показать сообщения:    

    Запретная Зона 3D через торрент
    Скачать бесплатно Запретная Зона 3D
    Запретная Зона 3D скачать торрент
    Запретная Зона 3D смотреть онлайн
    Cкачать фильм Запретная Зона 3D бесплатно
    Запретная Зона 3D скачать торрент в хорошем качестве
    Запретная Зона 3D смотреть онлайн бесплатно в хорошем качестве


    Вы не можете начинать темы
    Вы не можете отвечать на сообщения
    Вы не можете редактировать свои сообщения
    Вы не можете удалять свои сообщения
    Вы не можете голосовать в опросах
    Вы не можете прикреплять файлы к сообщениям
    Вы можете скачивать файлы