Лицензия

MVO

1

1 сезон

Лицензия

Лицензия

13

MVO

1 сезон

Deluxe Edition

pack

Рекомендуем

30

Repack

ВАЖНО

ВАЖНО

Ghostwire

RePack

jed

RePack

fifa19

RePack

RDR2

RePack

NEED FOR SPEED™ PAYBACK

RePack

Кинопоиск HD

 Острые козырьки 6 сезон

6 сезон

FAR CRY 6

RePack

Лицензия

MVO

1

1 сезон

1 сезон

Лицензия

  

Побег за мечтой (Константин Тищенко , Юрий Сысоев , Владимир Мистюков) [2015, Россия, криминал, драма, WEB-DLRip-AVC от sokol_ok]

Побег за мечтой через торрент pb.wtf

Раздают: 1 [ 0 KB/s ]
Размер: 747 MB | Добавлен: 6 лет 4 мес. назад | Торрент скачан:47 раз
Смотреть онлайн Побег за мечтой | Скачать   

22-05-2016 16:51 Побег за мечтой Скачать торрент  

Побег за мечтой


Страна: Россия
Жанр: криминал, драма
Год выпуска: 2015
Продолжительность: 01:15:46

Перевод: Не требуется
Cубтитры: нет
Оригинальная аудиодорожка: русский

Режиссер: Константин Тищенко, Юрий Сысоев, Владимир Мистюков

В ролях: Владимир Вдовиченков, Мирослава Карпович, Андрей Чадов, Денис Косяков, Антон Буглак, Александр Кононец, Прохор Чеховской, Александр Фурсенко, Зоя Кайдановская, Алексей Фатеев, Константин Константинов

Описание:
Три истории о трех разных мужчинах. Молодой писатель без книги, но со смертью под боком. Врач с принципиальной позицией и непониманием среди окружающих. И адвокат, считающий, что от всего можно откупиться. Всех троих испытает судьба, и ни один из них не останется прежним... Релиз:

Автор рипа: stalkerok

Сэмпл

Качество видео: WEB-DLRip-AVC [WEB-DL / 1080p]
Формат видео: MKV
Видео кодек: AVC
Аудио кодек: AAC
Видео: 1312 Кбит/сек, 908*490 (1,85:1), в 25,000 кадров/сек, AVC
Аудио: русский, 64,0 Кбит/сек, 48,0 КГц / 24,0 КГц, 2 канала, AAC (HE-AAC / LC)

Общее
Уникальный идентификатор : 240428705478847715994974259627378307084 (0xB4E0E263EC2CBC179506FEEFFB0B700C)
Полное имя : M:\1WEB-DL\Pobeg za mechtoj\Побег за мечтой.2015.WEB-DLRip-AVC.745Mb.stalkerok.new-team.mkv
Формат : Matroska
Версия формата : Version 4 / Version 2
Размер файла : 747 Мбайт
Продолжительность : 1 ч. 15 м.
Общий поток : 1378 Кбит/сек
Название фильма : Побег за мечтой (2015) (New-Team) (Rip by stalkerok)
Дата кодирования : UTC 2016-05-22 16:50:42
Программа кодирования : mkvmerge v8.6.1 ('Flying') 64bit
Библиотека кодирования : libebml v1.3.3 + libmatroska v1.4.4

Видео
Идентификатор : 1
Формат : AVC
Формат/Информация : Advanced Video Codec
Профиль формата : [email protected]
Параметр CABAC формата : Да
Параметр ReFrames формата : 16 кадров
Идентификатор кодека : V_MPEG4/ISO/AVC
Продолжительность : 1 ч. 15 м.
Битрейт : 1312 Кбит/сек
Ширина : 908 пикселей
Высота : 490 пикселей
Соотношение сторон : 1,85:1
Режим частоты кадров : Постоянный
Частота кадров : 25,000 кадров/сек
Цветовое пространство : YUV
Субдискретизация насыщенности : 4:2:0
Битовая глубина : 8 бит
Тип развёртки : Прогрессивная
Бит/(Пиксели*Кадры) : 0.118
Размер потока : 711 Мбайт (95%)
Заголовок : Побег за мечтой (2015) (New-Team) (Rip by stalkerok)
Библиотека кодирования : x264 core 148 r2665kMod a01e339
Настройки программы : cabac=1 / ref=16 / deblock=1:-3:-2 / analyse=0x3:0x133 / me=umh / subme=10 / psy=1 / fade_compensate=0.00 / psy_rd=1.00:0.00 / mixed_ref=1 / me_range=32 / chroma_me=1 / trellis=2 / 8x8dct=1 / cqm=0 / deadzone=21,11 / fast_pskip=0 / chroma_qp_offset=-2 / threads=12 / lookahead_threads=3 / sliced_threads=0 / nr=0 / decimate=0 / interlaced=0 / bluray_compat=0 / constrained_intra=0 / fgo=0 / bframes=16 / b_pyramid=2 / b_adapt=2 / b_bias=0 / direct=3 / weightb=1 / open_gop=0 / weightp=2 / keyint=250 / keyint_min=25 / scenecut=40 / intra_refresh=0 / rc_lookahead=60 / rc=2pass / mbtree=0 / bitrate=1312 / ratetol=1.0 / qcomp=0.65 / qpmin=0 / qpmax=69 / qpstep=4 / cplxblur=20.0 / qblur=0.5 / vbv_maxrate=50000 / vbv_bufsize=62500 / nal_hrd=none / filler=0 / ip_ratio=1.40 / pb_ratio=1.30 / aq=1:0.95
Default : Да
Forced : Нет

Аудио
Идентификатор : 2
Формат : AAC
Формат/Информация : Advanced Audio Codec
Профиль формата : HE-AAC / LC
Идентификатор кодека : A_AAC
Продолжительность : 1 ч. 15 м.
Битрейт : 64,0 Кбит/сек
Каналы : 2 канала
Расположение каналов : Front: L R
Частота : 48,0 КГц / 24,0 КГц
Частота кадров : 23,438 кадра/сек (1024 spf)
Метод сжатия : С потерями
Задержка видео : 31 мс.
Размер потока : 34,7 Мбайт (5%)
Язык : Russian
Default : Да
Forced : Нет



Скачать Побег за мечтой через торрент http://i72.fastpic.ru/big/2015/0531/46/68ef8a2783b58e5344cc30bbd3f1b046.png Скачать, смотреть онлайн Побег за мечтой бесплантно в хорошем качестве Описание:Три истории о трех разных мужчинах. Молодой писатель без книги, но со смертью под боком. Врач с принципиальной позицией и ... 10 10 2
Info! Золотая раздача, скачанное не засчитывается.
Торрент: Зарегистрирован [2016-05-22 16:51] · скачан: 47 раз
Статус: √ проверено
Размер: 747 MB
Как cкачать? Как скачать Побег за мечтой через торрент | UTorrent

% Раздел Тема Автор DL S | L
T Наши фильмы 2015 [ 1.37 GB ] Побег за мечтой | | DLRip, [Русский Ворон Скачать
1 | 0
T Наши фильмы 2015 [ 1.37 GB ] Побег за мечтой | | DLRip-AVC от sokol_ok sokol_ok Скачать
2 | 0
T Наши фильмы (HD, WEB-DL 720p, 1080p) [ 2.91 GB ] Побег за мечтой | | 1080p -Lexx- Скачать
1 | 0

28-11-2019 20:33  

Отключить вcю реклaмy на сайте

    Дорогой пользователь! Огромная просьба, поблагодарите релизера, оцените раздачу и оставьте свои комментарий, если Вы скачали Побег за мечтой через торрент бесплатно!!
    Комментировать посты могут только пользователи прошедшие не сложную регистрацию
    Показать сообщения:    


    Побег за мечтой через торрент
    Скачать бесплатно Побег за мечтой
    Побег за мечтой скачать торрент
    Побег за мечтой смотреть онлайн
    Cкачать фильм Побег за мечтой бесплатно
    Побег за мечтой скачать торрент в хорошем качестве
    Побег за мечтой смотреть онлайн бесплатно в хорошем качестве
    Вы не можете начинать темы
    Вы не можете отвечать на сообщения
    Вы не можете редактировать свои сообщения
    Вы не можете удалять свои сообщения
    Вы не можете голосовать в опросах
    Вы не можете прикреплять файлы к сообщениям
    Вы можете скачивать файлы