2 сезон

iTunes

MVO

1

2 сезон

iTunes

iTunes

1 сезон

RePack

30

Ultimate

ВАЖНО

ИГРА 18+

pack

RePack

MK11
pack

Легкие деньги

RePack

jed

RePack

fifa19

RePack

RDR2

RePack

NEED FOR SPEED™ PAYBACK

4 сезон

9 сезон

Бесстыжие 9 сезон

Все сериалы

все сериалы на PB.wtf

RePack

FAR CRY 5

Anonymous, добрый день, мы не успеваем собрать деньги на оплату серверов за декабрь и январь, помогите нам пожалуйста в это трудное время. В качестве благодарности мы отключим Вам всю рекламу на сайте (укажите свой ник в строку Ваше имя)!

×
  
Magnet ссылка

Enrique Iglesias feat. Wisin – Duele El Corazon [2016 г., Pop, HDTVRip 1080p] pb.wtf

Enrique Iglesias feat. Wisin – Duele El Corazon через торрент pb.wtf

Размер: 408 MB | Добавлен: 4 года 8 мес. назад | Торрент скачан:72 раза
Скачать  

22-05-2016 17:05 Enrique Iglesias feat. Wisin – Duele El Corazon Скачать торрент  

Enrique Iglesias feat. Wisin – Duele El Corazon
Год выпуска: 2016
Жанр: Pop
Продолжительность: 00:08:46
Качество:HDTVRip 1080p
Формат: MPEG4
Видео кодек: AVC
Аудио кодек:AAC
Видео: MPEG4 AVC, 1920x1080, 23,976 fps, 6183 kbps
Аудио#1: AAC 48,0 kHz, 2 ch, 320 kbps
Общее
Полное имя : Enrique Iglesias feat. Wisin – Duele El Corazon.mp4
Формат : MPEG-4
Профиль формата : Base Media / Version 2
Идентификатор кодека : mp42
Размер файла : 408 Мбайт
Продолжительность : 8 м. 46 с.
Режим общего битрейта : Переменный
Общий поток : 6510 Кбит/сек

Видео
Идентификатор : 1
Формат : AVC
Формат/Информация : Advanced Video Codec
Профиль формата : High@L4.0
Параметр CABAC формата : Да
Параметр ReFrames формата : 8 кадров
Идентификатор кодека : avc1
Идентификатор кодека/Информация : Advanced Video Coding
Продолжительность : 8 м. 45 с.
Продолжительность оригинала : 8 м. 46 с.
Вид битрейта : Переменный
Битрейт : 6183 Кбит/сек
Максимальный битрейт : 40,0 Мбит/сек
Ширина : 1920 пикселей
Высота : 1080 пикселей
Соотношение сторон : 16:9
Режим частоты кадров : Переменный
Частота кадров : 23,976 кадра/сек
Минимальная частота кадров : 23,974 кадра/сек
Максимальная частота кадров : 23,981 кадра/сек
Цветовое пространство : YUV
Субдискретизация насыщенности : 4:2:0
Битовая глубина : 8 бит
Тип развёртки : Прогрессивная
Бит/(Пиксели*Кадры) : 0.124
Размер потока : 388 Мбайт (95%)
Размер потока оригинала : 388 Мбайт (95%)
Язык : English
mdhd_Duration : 525984

Аудио
Идентификатор : 2
Формат : AAC
Формат/Информация : Advanced Audio Codec
Профиль формата : LC
Идентификатор кодека : 40
Продолжительность : 8 м. 46 с.
Продолжительность оригинала : 8 м. 45 с.
Вид битрейта : Переменный
Битрейт : 320 Кбит/сек
Каналы : 2 канала
Расположение каналов : Front: L R
Частота : 48,0 КГц
Метод сжатия : С потерями
Размер потока : 20,1 Мбайт (5%)
Размер потока оригинала : 20,1 Мбайт (5%)
Язык : English
mdhd_Duration : 526015
pb.wtf



Скачать Enrique Iglesias feat. Wisin – Duele El Corazon через торрент http://funkyimg.com/i/2c5An.png Скачать фильм Enrique Iglesias feat. Wisin – Duele El Corazon [2016 г., Pop, HDTVRip 1080p]через торрент бесплантно в хорошем качестве Год выпуска: 2016Жанр: PopПродолжительность: ... 6.7 10 3
Торрент: Зарегистрирован [2016-05-22 17:05] · скачан: 72 раз
Статус: √ проверено
Размер: 408 MB
Как cкачать? Как скачать Enrique Iglesias feat. Wisin – Duele El Corazon через торрент | UTorrent

28-11-2019 20:33  

Отключить всю рекламу на сайте

01-07-2018 16:13 Enrique Iglesias feat. Wisin – Duele El Corazon Скачать торрент  

кто-нибудь раздаст??
наверное никто

спасибо большое раздавшему, скачалpb.wtf



    Дорогой пользователь! Огромная просьба, поблагодарите релизера, оцените раздачу и оставьте свои комментарий, если Вы скачали Enrique Iglesias feat. Wisin – Duele El Corazon через торрент бесплатно! Внесите свою лепту в развитие PiratBit!
    Комментировать посты могут только пользователи прошедшие не сложную регистрацию
    Показать сообщения:    

    Enrique Iglesias feat. Wisin – Duele El Corazon через торрент
    Скачать бесплатно Enrique Iglesias feat. Wisin – Duele El Corazon
    Enrique Iglesias feat. Wisin – Duele El Corazon скачать торрент
    Enrique Iglesias feat. Wisin – Duele El Corazon смотреть онлайн
    Cкачать фильм Enrique Iglesias feat. Wisin – Duele El Corazon бесплатно
    Enrique Iglesias feat. Wisin – Duele El Corazon скачать торрент в хорошем качестве
    Enrique Iglesias feat. Wisin – Duele El Corazon смотреть онлайн бесплатно в хорошем качестве


    Вы не можете начинать темы
    Вы не можете отвечать на сообщения
    Вы не можете редактировать свои сообщения
    Вы не можете удалять свои сообщения
    Вы не можете голосовать в опросах
    Вы не можете прикреплять файлы к сообщениям
    Вы можете скачивать файлы