новый адрес
Ссылка на приватное зеркало всего за 1$. Внимание количество ограничено!!!

iTunes

1+1

iTunes

мы

iTunes

1

iTunes

Чернобыль

iTunes

Ральф против интернета

Лицензия

ПШазам

Лицензия

Оно 2

Лицензия

30
pack

Вам бонус

ВАЖНО

!!Акция!!

Alien_RageХит недели

RePack

Resident Evil 21

ИГРА 18+

pack

RePack

jed

!!Акция!!

Alien_Rage

RePack

fifa19

RePack

Assassins Creed: Odyssey

RePack

NEED FOR SPEED™ PAYBACK

3 сезон

9 сезон

Бесстыжие 9 сезон

Все сериалы

все сериалы на PB.wtf

RePack

FAR CRY 5
Ребята, катастрофически не хватает 1900р. для оплаты серверов за Октябрь (всвязи с блокировками трафик упал в 3 раза), 1-2р., выручайте.
  

На бойком месте (Елена Скачко, Ольга Викландт, Алексей Сахаров) [1955, СССР, комедия, SATRip от AVP Studio] pb.wtf

На бойком месте через торрент pb.wtf

Размер: 1.46 GB | Добавлен: 3 года 4 мес. назад | Торрент скачан:15 раз
Скачать  

14-07-2016 08:59 На бойком месте Скачать торрент  

На бойком месте
Страна: СССР
Производство: Мосфильм

Жанр: комедия
Год выпуска: 1955
Продолжительность: 01:35:30

Перевод: Не требуется
Cубтитры: нет
Оригинальная аудиодорожка: русский

Режиссер: Елена Скачко, Ольга Викландт, Алексей Сахаров

В ролях:
Михаил Названов, Борис Терентьев, Ольга Викландт, Марина Кузнецова, Сергей Тихонравов, Петр Березов, Борис Белов, Виктор Машков, Владимир Торстенсен, Марк Гольцин, Юлиан Козловский...
Полный список актёров

Описание:
Фильм-спектакль по одноименной пьесе А.Островского в постановке Московского драматического театра имени А.С.Пушкина.
На бойком месте устроил свой постоялый двор Вукол Ермолаевич Бессудный: днем - хлебосольный хозяин, ночью - разбойник и вор. Привечает он богатых купцов, опаивает сонным зельем да грабит их на лесной дороге. А жена его Евгения Мироновна, как уедет Вукол на ночной промысел, ждет в горнице любовника-красавца помещика Миловидова. Любит молодого барина и сестра Вукола Аннушка. Глухие леса, суровые нравы, купеческая молодецкая удаль, женская ревность… Жди беды!

Источник: DVB
Качество видео: SATRip
Формат видео: AVI

Видео: 720x544 (4:3), 25 fps, XviD ~ 1987 kbps avg, 0.203 bit/pixel
Аудио: 48 kHz, Dolby Digital AC3 2.0, 192 kbps

Раздача от:
Общее
Полное имя : Na.boykom.meste.1955.SATRip_[New-team]_by_AVP_Studio.avi
Формат : AVI
Формат/Информация : Audio Video Interleave
Размер файла : 1,46 Гбайт
Продолжительность : 1 ч. 35 м.
Общий поток : 2188 Кбит/сек
Программа кодирования : VirtualDubMod 1.5.10.3 | www.virtualdub-fr.org || (build 2550/release)
Библиотека кодирования : VirtualDubMod build 2550/release

Видео
Идентификатор : 0
Формат : MPEG-4 Visual
Профиль формата : Advanced Simple@L5
Параметр BVOP формата : 1
Параметр QPel формата : Нет
Параметр GMC формата : Без точки перехода
Параметр матрицы формата : Выборочная
Идентификатор кодека : XVID
Идентификатор кодека/Подсказка : XviD
Продолжительность : 1 ч. 35 м.
Битрейт : 1987 Кбит/сек
Ширина : 720 пикселей
Высота : 544 пикселя
Соотношение сторон : 4:3
Частота кадров : 25,000 кадров/сек
Цветовое пространство : YUV
Субдискретизация насыщенности : 4:2:0
Битовая глубина : 8 бит
Тип развёртки : Прогрессивная
Метод сжатия : С потерями
Бит/(Пиксели*Кадры) : 0.203
Размер потока : 1,33 Гбайт (91%)
Библиотека кодирования : XviD 1.2.1 (UTC 2008-12-04)

Аудио
Идентификатор : 1
Формат : AC-3
Формат/Информация : Audio Coding 3
Расширение режима : CM (complete main)
Параметр Endianness формата : Big
Идентификатор кодека : 2000
Продолжительность : 1 ч. 35 м.
Вид битрейта : Постоянный
Битрейт : 192 Кбит/сек
Каналы : 2 канала
Расположение каналов : Front: L R
Частота : 48,0 КГц
Частота кадров : 31,250 кадров/сек (1536 spf)
Метод сжатия : С потерями
Размер потока : 131 Мбайт (9%)
Выравнивание : Разделение по промежуткам
Продолжительность промежутка : 40 мс. (1,00 видеокадр)
Время предзагрузки промежутка : 500 мс
pb.wtf



Скачать На бойком месте через торрент http://s018.radikal.ru/i519/1607/f1/8ceb31b81d4f.png Скачать фильм На бойком месте через торрент бесплантно в хорошем качестве Описание:Фильм-спектакль по одноименной пьесе А.Островского в постановке Московского драматического театра имени А.С.Пушкина.На бойком ... 10 10 3
Info! Золотая раздача, скачанное не засчитывается.
Торрент: Зарегистрирован [2016-07-14 08:59] · скачан: 15 раз
Статус: √ проверено
Размер: 1.46 GB
Как cкачать? Как скачать На бойком месте через торрент | qTorrent

% Раздел Тема Автор DL S | L
Кино СССР [ 1.46 GB ] На бойком месте [1955 СССР SATRip-AVC от AVP Studio] AVP Studio Скачать
1 | 0
Кино СССР [ 745 MB ] На бойком месте [1955 СССР SATRip от AVP Studio] AVP Studio Скачать
1 | 0
    Дорогой пользователь! Огромная просьба, поблагодарите релизера, оцените раздачу и оставьте свои комментарий, если Вы скачали На бойком месте через торрент бесплатно! Внесите свою лепту в развитие PiratBit!
    Комментировать посты могут только пользователи прошедшие не сложную регистрацию
    Показать сообщения:    

    На бойком месте через торрент
    Скачать бесплатно На бойком месте
    На бойком месте скачать торрент
    На бойком месте смотреть онлайн
    Cкачать фильм На бойком месте бесплатно
    На бойком месте скачать торрент в хорошем качестве
    На бойком месте смотреть онлайн бесплатно в хорошем качестве


    Вы не можете начинать темы
    Вы не можете отвечать на сообщения
    Вы не можете редактировать свои сообщения
    Вы не можете удалять свои сообщения
    Вы не можете голосовать в опросах
    Вы не можете прикреплять файлы к сообщениям
    Вы можете скачивать файлы