2 сезон

iTunes

1 сезон

1

iTunes

iTunes

iTunes

1 сезон

RePack

30

ИГРА 18+

pack

ВАЖНО

!!Акция!!

Alien_RageХит недели

RePack

MK11
pack

Забери бонус

RePack

jed

!!Акция!!

Alien_Rage

RePack

fifa19

RePack

Assassins Creed: Odyssey

RePack

NEED FOR SPEED™ PAYBACK

4 сезон

9 сезон

Бесстыжие 9 сезон

Все сериалы

все сериалы на PB.wtf

RePack

FAR CRY 5
  

Индокитай / Indochine (Режис Варнье ) [1992, драма, мелодрама, BDRip 720p от _denis_100 / NNNB] 2xMVO + AVO + Original + Sub (Rus,Eng) pb.wtf

Индокитай через торрент pb.wtf

Размер: 11.53 GB | Добавлен: 4 года 3 мес. назад | Торрент скачан:29 раз
Скачать  

14-07-2016 11:33 Индокитай Скачать торрент  

Индокитай / Indochine


Год выпуска: 1992
Страна: Франция
Жанр: драма, мелодрама
Продолжительность: 02:37:55
Перевод: Профессиональный многоголосый, Авторский одноголосый
Субтитры: русские, английские
Режиссер: Режис Варнье
В ролях: Катрин Денёв , Венсан Перес , Лин Дэн Пэм , Жан Янн , Доминик Блан , Анри Марто , Карло Брандт , Жерар Лартиго , Юбер Сен-Макари , Анджей Северин , Мэй Чау , Ален Фромаже
Описание:
Элиана, богатая владелица плантации каучука знакомится с недавно приехавшим морским офицером и влюбляется в него вопреки своей воле. Ее несовершеннолетняя воспитанница Камилла влюбляется в красавца-офицера, когда тот спасает ее из рук террориста. Его вынуждают уехать на далекий форпост на севере, но упрямая девчонка сбегает из дома и отправляется вслед за ним, открывая для себя по пути, что в стране происходит много бед и несчастий...

PG-13 - Детям до 13 лет просмотр не желателен
Качество: BDRip 720p
Контейнер (Расширение): MKV
Видео: 1280x690, 8855 Кбит/сек, 24 кадр/сек, 0,418 Бит/[Пиксели*Кадры]
Аудио №1: русский / AC3 / 5.1 / 48 kHz / 448 kbps / 16 bit |Профессиональный многоголосый, CP Digital|
Аудио №2: русский / AC3 / 5.1 / 48 kHz / 384 kbps / 16 bit |Профессиональный многоголосый, Карусель|
Аудио №3: русский / AC3 / 5.1 / 48 kHz / 384 kbps / 16 bit |Авторский одноголосый, Ю.Живов|
Аудио №4: французский / AC3 / 5.1 / 48 kHz / 384 kbps / 16 bit
Навигация по главам(Чаптеры): естьАвтор рипа: Сообщество: Звуковые дорожки отдельно:

Код:

Format                                   : Matroska
Format version                           : Version 2
File size                                : 11.5 GiB
Duration                                 : 2h 37mn
Overall bit rate                         : 10.5 Mbps
Movie name                               : Indochine.(1992).BDRip.720p.[denis100]
Encoded date                             : UTC 2016-07-13 06:57:26
Writing application                      : mkvmerge v5.8.0 ('No Sleep / Pillow') built on Sep  2 2012 15:37:04
Writing library                          : libebml v1.2.3 + libmatroska v1.3.0

Video
ID                                       : 1
Format                                   : AVC
Format/Info                              : Advanced Video Codec
Format profile                           : High@L4.1
Format settings, CABAC                   : Yes
Format settings, ReFrames                : 9 frames
Codec ID                                 : V_MPEG4/ISO/AVC
Duration                                 : 2h 37mn
Bit rate                                 : 8 855 Kbps
Width                                    : 1 280 pixels
Height                                   : 690 pixels
Display aspect ratio                     : 1.855
Frame rate                               : 24.000 fps
Color space                              : YUV
Chroma subsampling                       : 4:2:0
Bit depth                                : 8 bits
Scan type                                : Progressive
Bits/(Pixel*Frame)                       : 0.418
Stream size                              : 9.54 GiB (83%)
Title                                    : Indochine.(1992).BDRip.720p.[denis100]
Writing library                          : x264 core 148 r2692 64f4e24
Encoding settings                        : cabac=1 / ref=9 / deblock=1:-3:-3 / analyse=0x3:0x133 / me=umh / subme=11 / psy=1 / psy_rd=1.00:0.15 / mixed_ref=1 / me_range=32 / chroma_me=1 / trellis=2 / 8x8dct=1 / cqm=0 / deadzone=21,11 / fast_pskip=0 / chroma_qp_offset=-3 / threads=6 / lookahead_threads=1 / sliced_threads=0 / nr=0 / decimate=1 / interlaced=0 / bluray_compat=0 / constrained_intra=0 / bframes=11 / b_pyramid=2 / b_adapt=2 / b_bias=0 / direct=3 / weightb=1 / open_gop=0 / weightp=2 / keyint=240 / keyint_min=23 / scenecut=40 / intra_refresh=0 / rc=2pass / mbtree=0 / bitrate=8855 / ratetol=1.0 / qcomp=0.60 / qpmin=0 / qpmax=69 / qpstep=4 / cplxblur=20.0 / qblur=0.5 / ip_ratio=1.40 / pb_ratio=1.30 / aq=1:0.80
Language                                 : English
Default                                  : Yes
Forced                                   : No

Audio #1
ID                                       : 2
Format                                   : AC-3
Format/Info                              : Audio Coding 3
Mode extension                           : CM (complete main)
Codec ID                                 : A_AC3
Duration                                 : 2h 37mn
Bit rate mode                            : Constant
Bit rate                                 : 448 Kbps
Channel(s)                               : 6 channels
Channel positions                        : Front: L C R, Side: L R, LFE
Sampling rate                            : 48.0 KHz
Bit depth                                : 16 bits
Compression mode                         : Lossy
Stream size                              : 506 MiB (4%)
Title                                    : MVO, CP Digital
Language                                 : Russian
Default                                  : Yes
Forced                                   : No

Audio #2
ID                                       : 3
Format                                   : AC-3
Format/Info                              : Audio Coding 3
Mode extension                           : CM (complete main)
Codec ID                                 : A_AC3
Duration                                 : 2h 37mn
Bit rate mode                            : Constant
Bit rate                                 : 384 Kbps
Channel(s)                               : 6 channels
Channel positions                        : Front: L C R, Side: L R, LFE
Sampling rate                            : 48.0 KHz
Bit depth                                : 16 bits
Compression mode                         : Lossy
Stream size                              : 434 MiB (4%)
Title                                    : MVO, Карусель
Language                                 : Russian
Default                                  : No
Forced                                   : No

Audio #3
ID                                       : 4
Format                                   : AC-3
Format/Info                              : Audio Coding 3
Mode extension                           : CM (complete main)
Codec ID                                 : A_AC3
Duration                                 : 2h 37mn
Bit rate mode                            : Constant
Bit rate                                 : 384 Kbps
Channel(s)                               : 6 channels
Channel positions                        : Front: L C R, Side: L R, LFE
Sampling rate                            : 48.0 KHz
Bit depth                                : 16 bits
Compression mode                         : Lossy
Stream size                              : 434 MiB (4%)
Title                                    : AVO, Ю.Живов
Language                                 : Russian
Default                                  : No
Forced                                   : No

Audio #4
ID                                       : 5
Format                                   : AC-3
Format/Info                              : Audio Coding 3
Mode extension                           : CM (complete main)
Codec ID                                 : A_AC3
Duration                                 : 2h 37mn
Bit rate mode                            : Constant
Bit rate                                 : 384 Kbps
Channel(s)                               : 6 channels
Channel positions                        : Front: L C R, Side: L R, LFE
Sampling rate                            : 48.0 KHz
Bit depth                                : 16 bits
Compression mode                         : Lossy
Stream size                              : 434 MiB (4%)
Language                                 : French
Default                                  : No
Forced                                   : No

Text #1
ID                                       : 6
Format                                   : UTF-8
Codec ID                                 : S_TEXT/UTF8
Codec ID/Info                            : UTF-8 Plain Text
Language                                 : Russian
Default                                  : No
Forced                                   : No

Text #2
ID                                       : 7
Format                                   : UTF-8
Codec ID                                 : S_TEXT/UTF8
Codec ID/Info                            : UTF-8 Plain Text
Language                                 : English
Default                                  : No
Forced                                   : No

Menu
00:00:00.000                             : en:Chapter 01
00:11:36.250                             : en:Chapter 02
00:25:12.041                             : en:Chapter 03
00:34:34.791                             : en:Chapter 04
00:45:34.875                             : en:Chapter 05
00:54:55.750                             : en:Chapter 06
01:08:01.958                             : en:Chapter 07
01:23:13.416                             : en:Chapter 08
01:36:14.832                             : en:Chapter 09
01:52:29.875                             : en:Chapter 10
02:10:33.333                             : en:Chapter 11
02:33:08.333                             : en:Chapter 12

x264 [info]: frame I:1375 Avg QP:17.07 size:158948
x264 [info]: frame P:48864 Avg QP:19.22 size: 70133
x264 [info]: frame B:177161 Avg QP:21.38 size: 38591
x264 [info]: consecutive B-frames: 1.8% 3.4% 8.5% 17.5% 13.7% 42.4% 5.0% 1.4% 4.3% 0.6% 0.7% 0.6%
pb.wtf



Скачать Индокитай через торрент http://i6.imageban.ru/out/2016/07/14/9bb5c856be37bb2e92b462c64953489c.png Скачать фильм Индокитай через торрент бесплантно в хорошем качестве Описание:Элиана, богатая владелица плантации каучука знакомится с недавно приехавшим морским офицером и влюбляется в него вопреки своей ... 10 10 1
Info! Золотая раздача, скачанное не засчитывается.
Торрент: Зарегистрирован [2016-07-14 11:33] · скачан: 29 раз
Статус: √ проверено
Размер: 11.53 GB
Как cкачать? Как скачать Индокитай через торрент | qTorrent

% Раздел Тема Автор DL S | L
Фильмы [HD 720p, 1080p] (Хороший звук DUB, MVO) [ 8.21 GB ] Индокитай / Indochine [1992 BDRip 720p by msltel] 3 x MVO AVO msltel Скачать
1 | 0
Фильмы [HD 720p, 1080p] (Хороший звук DUB, MVO) [ 23.02 GB ] Индокитай / Indochine [1992 BDRip 1080p by msltel] 3 x MVO AVO msltel Скачать
1 | 0
Фильмы [HD 720p, 1080p] (Хороший звук DUB, MVO) [ 7.51 GB ] Индокитай / Indochine [1992 BDRip 720p by msltel] 2 x MVO AVO msltel Скачать
1 | 0
Фильмы до 2000 г. [ 2.91 GB ] Индокитай / Indochine [1992 BDRip Оригинал ] schultz Скачать
1 | 0

28-11-2019 20:33  

Отключить всю рекламу на сайте

14-07-2016 16:41 Индокитай Скачать торрент  

Благодарю за фильм)pb.wtf



    Дорогой пользователь! Огромная просьба, поблагодарите релизера, оцените раздачу и оставьте свои комментарий, если Вы скачали Индокитай через торрент бесплатно! Внесите свою лепту в развитие PiratBit!
    Комментировать посты могут только пользователи прошедшие не сложную регистрацию
    Показать сообщения:    

    Индокитай через торрент
    Скачать бесплатно Индокитай
    Индокитай скачать торрент
    Индокитай смотреть онлайн
    Cкачать фильм Индокитай бесплатно
    Индокитай скачать торрент в хорошем качестве
    Индокитай смотреть онлайн бесплатно в хорошем качестве


    Вы не можете начинать темы
    Вы не можете отвечать на сообщения
    Вы не можете редактировать свои сообщения
    Вы не можете удалять свои сообщения
    Вы не можете голосовать в опросах
    Вы не можете прикреплять файлы к сообщениям
    Вы можете скачивать файлы