Ссылка на приватное зеркало нашего сайта всего за 1$. Внимание количество ограничено!!!

2 сезон

iTunes

1 сезон

1

iTunes

iTunes

iTunes

1 сезон

RePack

30

ИГРА 18+

pack

ВАЖНО

!!Акция!!

Alien_RageХит недели

RePack

MK11
pack

Забери бонус

RePack

jed

!!Акция!!

Alien_Rage

RePack

fifa19

RePack

Assassins Creed: Odyssey

RePack

NEED FOR SPEED™ PAYBACK

4 сезон

9 сезон

Бесстыжие 9 сезон

Все сериалы

все сериалы на PB.wtf

RePack

FAR CRY 5
  

Лагерь для военнопленных №17 / Stalag 17 (Билли Уайлдер) [1953, драма, военный, BDRip 720p by msltel] MVO pb.wtf

Лагерь для военнопленных №17 через торрент pb.wtf

Размер: 4.61 GB | Добавлен: 4 года 3 мес. назад | Торрент скачан:20 раз
Скачать  

14-07-2016 11:47 Лагерь для военнопленных №17 Скачать торрент  

Название: Лагерь для военнопленных №17
Оригинальное название: Stalag 17
Год выпуска: 1953
Страна: США
Жанр: драма, военный
Продолжительность: 02:00:33
Перевод: профессиональный многоголосый

Режиссёр: Билли Уайлдер

В ролях: Уильям Холден, Дон Тэйлор, Отто Премингер, Роберт Штраусс, Харви Лембек, Ричард Эрдман, Питер Грэйвс, Невилл Брэнд, Зиг Руман, Джил Стрэттон, Майкл Мур, Питер Лидз, Уэсли Линг, Светлана МакЛи, Джон Митчум, Одри Штраусс

Описание: В Шталаге 17, немецком лагере для военнопленных где-то на Дунае, в бараке № 4 находятся пленные американские сержанты. Среди них староста - ответственный за безопасность, делец и игрок сержант Сефтон, владеющий самогонным аппаратом и «обсерваторией», и ещё 70 военнопленных. После того как двоих американцев убивают при попытке к бегству, в бараке понимают, что среди них стукач. Самая вероятная кандидатура - Сефтон... Замечательный фильм Уайлдера, в котором фоном для интриги, является лагерная жизнь - комичная и трагичная одновременно. Пленные справляют Рождество, мечтают попасть в барак, где содержат русских женщин, подпольно слушают радио...



Качество: BDRip 720p
Формат: MKV
Видео: MPEG-4 AVC, 5091 Кбит/с, 968x720, 23,976 кадра/с
Аудио 1: русский, AC3, 192 kbps, 2 ch, 48 kHz [профессиональный многоголосый]
Аудио 2: английский, AC3, 192 kbps, 2 ch, 48 kHz [оригинал]
Субтитры: английские (для слабослышащих)
Общее
Уникальный идентификатор : 205227168817308814812545634143519627044 (0x9A6550A2B4E92028B492940BC3BFD724)
Полное имя : D:\Video\Шталаг 17.1953.BDRip.720p.mkv
Формат : Matroska
Версия формата : Version 4 / Version 2
Размер файла : 4,61 Гбайт
Продолжительность : 2 ч. 0 м.
Общий поток : 5478 Кбит/сек
Дата кодирования : UTC 2016-07-14 02:42:21
Программа кодирования : mkvmerge v8.2.0 ('World of Adventure') 64bit
Библиотека кодирования : libebml v1.3.1 + libmatroska v1.4.2

Видео
Идентификатор : 1
Формат : AVC
Формат/Информация : Advanced Video Codec
Профиль формата : High@L4.1
Параметр CABAC формата : Да
Параметр ReFrames формата : 9 кадров
Идентификатор кодека : V_MPEG4/ISO/AVC
Продолжительность : 2 ч. 0 м.
Битрейт : 5091 Кбит/сек
Ширина : 968 пикселей
Высота : 720 пикселей
Соотношение сторон : 4:3
Режим частоты кадров : Постоянный
Частота кадров : 23,976 (24000/1001) кадра/сек
Цветовое пространство : YUV
Субдискретизация насыщенности : 4:2:0
Битовая глубина : 8 бит
Тип развёртки : Прогрессивная
Бит/(Пиксели*Кадры) : 0.305
Размер потока : 4,29 Гбайт (93%)
Библиотека кодирования : x264 core 146 r2538 121396c
Настройки программы : cabac=1 / ref=9 / deblock=1:-3:-3 / analyse=0x3:0x113 / me=umh / subme=10 / psy=1 / psy_rd=1.00:0.15 / mixed_ref=1 / me_range=32 / chroma_me=1 / trellis=2 / 8x8dct=1 / cqm=0 / deadzone=21,11 / fast_pskip=1 / chroma_qp_offset=-3 / threads=6 / lookahead_threads=1 / sliced_threads=0 / nr=0 / decimate=1 / interlaced=0 / bluray_compat=0 / constrained_intra=0 / bframes=8 / b_pyramid=2 / b_adapt=2 / b_bias=0 / direct=1 / weightb=1 / open_gop=0 / weightp=2 / keyint=230 / keyint_min=23 / scenecut=40 / intra_refresh=0 / rc_lookahead=40 / rc=crf / mbtree=0 / crf=18.5 / qcomp=0.60 / qpmin=0 / qpmax=69 / qpstep=4 / vbv_maxrate=40000 / vbv_bufsize=50000 / crf_max=0.0 / nal_hrd=none / filler=0 / ip_ratio=1.40 / pb_ratio=1.30 / aq=1:1.00
Язык : English
Default : Да
Forced : Нет

Аудио #1
Идентификатор : 2
Формат : AC-3
Формат/Информация : Audio Coding 3
Расширение режима : CM (complete main)
Параметр Endianness формата : Big
Идентификатор кодека : A_AC3
Продолжительность : 2 ч. 0 м.
Вид битрейта : Постоянный
Битрейт : 192 Кбит/сек
Каналы : 2 канала
Расположение каналов : Front: L R
Частота : 48,0 КГц
Частота кадров : 31,250 кадров/сек (1536 spf)
Метод сжатия : С потерями
Размер потока : 166 Мбайт (4%)
Заголовок : MVO
Язык : Russian
Default : Да
Forced : Нет

Аудио #2
Идентификатор : 3
Формат : AC-3
Формат/Информация : Audio Coding 3
Расширение режима : CM (complete main)
Параметр Endianness формата : Big
Идентификатор кодека : A_AC3
Продолжительность : 2 ч. 0 м.
Вид битрейта : Постоянный
Битрейт : 192 Кбит/сек
Каналы : 2 канала
Расположение каналов : Front: L R
Частота : 48,0 КГц
Частота кадров : 31,250 кадров/сек (1536 spf)
Метод сжатия : С потерями
Размер потока : 166 Мбайт (4%)
Заголовок : original
Язык : English
Default : Нет
Forced : Нет

Текст
Идентификатор : 4
Формат : UTF-8
Идентификатор кодека : S_TEXT/UTF8
Идентификатор кодека/Информация : UTF-8 Plain Text
Продолжительность : 1 ч. 59 м.
Битрейт : 74 бит/сек
Count of elements : 1801
Размер потока : 64,9 Кбайт (0%)
Заголовок : английские (для слабослышащих)
Язык : English
Default : Нет
Forced : Нет
pb.wtf



Скачать Лагерь для военнопленных №17 через торрент http://s019.radikal.ru/i639/1607/54/ef5eff92e5cc.jpg Скачать фильм Лагерь для военнопленных №17 через торрент бесплантно в хорошем качестве Описание: В Шталаге 17, немецком лагере для военнопленных где-то на Дунае, в бараке № 4 находятся пленные американские сержанты. Среди них ... 1 10 1
Info! Золотая раздача, скачанное не засчитывается.
Торрент: Зарегистрирован [2016-07-14 11:47] · скачан: 20 раз
Статус: √ проверено
Размер: 4.61 GB
Как cкачать? Как скачать Лагерь для военнопленных №17 через торрент | qTorrent

% Раздел Тема Автор DL S | L
Фильмы [HD 720p, 1080p] (Хороший звук DUB, MVO) [ 13.99 GB ] Лагерь для военнопленных №17 / Stalag 17 [1953 военный BDRip 1080p by msltel] MVO msltel Скачать
1 | 0

28-11-2019 20:33  

Отключить всю рекламу на сайте

14-07-2016 14:57 Лагерь для военнопленных №17 Скачать торрент  

Спасибо,заценим!!!!!pb.wtf



    Дорогой пользователь! Огромная просьба, поблагодарите релизера, оцените раздачу и оставьте свои комментарий, если Вы скачали Лагерь для военнопленных №17 через торрент бесплатно! Внесите свою лепту в развитие PiratBit!
    Комментировать посты могут только пользователи прошедшие не сложную регистрацию
    Показать сообщения:    

    Лагерь для военнопленных №17 через торрент
    Скачать бесплатно Лагерь для военнопленных №17
    Лагерь для военнопленных №17 скачать торрент
    Лагерь для военнопленных №17 смотреть онлайн
    Cкачать фильм Лагерь для военнопленных №17 бесплатно
    Лагерь для военнопленных №17 скачать торрент в хорошем качестве
    Лагерь для военнопленных №17 смотреть онлайн бесплатно в хорошем качестве


    Вы не можете начинать темы
    Вы не можете отвечать на сообщения
    Вы не можете редактировать свои сообщения
    Вы не можете удалять свои сообщения
    Вы не можете голосовать в опросах
    Вы не можете прикреплять файлы к сообщениям
    Вы можете скачивать файлы