2 сезон

iTunes

1 сезон

1

iTunes

iTunes

iTunes

1 сезон

RePack

30

ИГРА 18+

pack

ВАЖНО

!!Акция!!

Alien_RageХит недели

RePack

MK11
pack

Забери бонус

RePack

jed

!!Акция!!

Alien_Rage

RePack

fifa19

RePack

Assassins Creed: Odyssey

RePack

NEED FOR SPEED™ PAYBACK

4 сезон

9 сезон

Бесстыжие 9 сезон

Все сериалы

все сериалы на PB.wtf

RePack

FAR CRY 5
  

Хардкор / Hardcore Henry (Илья Найшуллер) [2015, Боевик, фантастика, BDRip 1080p] Dub / iTunes pb.wtf

Хардкор через торрент pb.wtf

Размер: 9.78 GB | Добавлен: 4 года 3 мес. назад | Торрент скачан:1349 раз
Скачать  

15-07-2016 08:58 Хардкор Скачать торрент  

Информация о фильме

Название: Хардкор

Оригинальное название: Hardcore Henry

Год выхода: 2015

Жанр: Боевик, фантастика

Страна: Россия, США

Студия: Базелевс Продакшн, Robusto

Продолжительность: 01:36:25

Перевод: Дублированный | iTunes

Режиссер: Илья Найшуллер

В ролях: Шарлто Копли, Данила Козловский, Хейли Беннетт, Андрей Дементьев, Сергей Шнуров, Кирилл Серебренников, Александр Паль, Светлана Устинова, Даша Чаруша, Равшана Куркова, Полина Филоненко, Евгений Баженов, Константин Хабенский, Михаил Изотов, Сергей Валяев, Сергей Мезенцев, Виталий Воскресенский, Алена Чехова, Леонид Парфёнов, Тим Рот

Описание:

Прекрасная супружеская жизнь рядом с очаровательной Эстель — это все, что помнит главный герой после того, как просыпается в неизвестной научной лаборатории, где в чувства его приводит собственная жена. Но супруга тут же оказывается похищенной, и ничего не понимающий главный герой Генри уже вынужден преследовать монстра Акана, который украл его жену. Теперь ради достижения цели Генри готов на многое. Но позже оказывается, что не только он один является врагом для Акана. У подозрительного Джимми тоже свои планы на злодея. Теперь вместе ребятам предстоит спасти Эстель и предотвратить попытку задействовать армию киборгов в борьбе с человечеством. Им предстоит бороться с самим воплощением зла.



Файл

Качество: BDRip 1080p

Видео: MPEG-4 AVC, 1912x1032, 12.6 Мbit/s, 23.976 fps

Аудио #01: 48 kHz, AC3, 5.1, 384 Kbps | Дублированный, iTunes |

Аудио #02: 48 kHz, DTS, 5.1, 1510 kbps | Оригинал |

Субтитры: Английские
General

Unique ID : 250588522606323831563051518972629829167 (0xBC85980C7FE12B89A3739AE02C17462F)

Complete name : F:VideoHardcore.Henry.2015.BDRip.1080p.ExKinoRay.mkv

Format : Matroska

Format version : Version 4 / Version 2

File size : 9.78 GiB

Duration : 1h 36mn

Overall bit rate : 14.5 Mbps

Movie name : Hardcore.Henry.2015.BDRip.1080p.ExKinoRay

Encoded date : UTC 2016-07-15 06:28:50

Writing application : mkvmerge v8.3.0 ('Over the Horizon') 64bit

Writing library : libebml v1.3.1 + libmatroska v1.4.2

Video

ID : 1

Format : AVC

Format/Info : Advanced Video Codec

Format profile : High@L4.1

Format settings, CABAC : Yes

Format settings, ReFrames : 4 frames

Codec ID : V_MPEG4/ISO/AVC

Duration : 1h 36mn

Bit rate : 12.6 Mbps

Width : 1 912 pixels

Height : 1 032 pixels

Display aspect ratio : 1.85:1

Frame rate mode : Constant

Frame rate : 23.976 (24000/1001) fps

Color space : YUV

Chroma subsampling : 4:2:0

Bit depth : 8 bits

Scan type : Progressive

Bits/(Pixel*Frame) : 0.266

Stream size : 8.50 GiB (87%)

Writing library : x264 core 142 r2431+42 c69a006 tMod [8-bit@all X86_64]

Encoding settings : cabac=1 / ref=4 / deblock=1:-3:-3 / analyse=0x3:0x133 / me=umh / subme=11 / psy=1 / fade_compensate=0.00 / psy_rd=0.90:0.00 / mixed_ref=1 / me_range=32 / chroma_me=1 / trellis=2 / 8x8dct=1 / cqm=0 / deadzone=21,11 / fast_pskip=0 / chroma_qp_offset=-2 / threads=42 / lookahead_threads=7 / sliced_threads=0 / nr=0 / decimate=0 / interlaced=0 / bluray_compat=0 / constrained_intra=0 / fgo=0 / bframes=8 / b_pyramid=2 / b_adapt=2 / b_bias=0 / direct=3 / weightb=1 / open_gop=0 / weightp=2 / keyint=240 / keyint_min=23 / scenecut=40 / intra_refresh=0 / rc_lookahead=60 / rc=crf / mbtree=0 / crf=18.0000 / qcomp=0.60 / qpmin=0:0:0 / qpmax=69:69:69 / qpstep=4 / vbv_maxrate=40000 / vbv_bufsize=30000 / crf_max=0.0 / nal_hrd=none / filler=0 / ip_ratio=1.40 / pb_ratio=1.30 / aq=1:0.90 / aq-sensitivity=10.00 / aq-factor=1.00:1.00:1.00 / aq2=0 / aq3=0

Language : English

Default : Yes

Forced : No

Audio #1

ID : 2

Format : AC-3

Format/Info : Audio Coding 3

Mode extension : CM (complete main)

Format settings, Endianness : Big

Codec ID : A_AC3

Duration : 1h 36mn

Bit rate mode : Constant

Bit rate : 384 Kbps

Channel(s) : 6 channels

Channel positions : Front: L C R, Side: L R, LFE

Sampling rate : 48.0 KHz

Frame rate : 31.250 fps (1536 spf)

Compression mode : Lossy

Delay relative to video : 4s 500ms

Stream size : 266 MiB (3%)

Title : iTunes

Language : Russian

Default : Yes

Forced : No

Audio #2

ID : 3

Format : DTS

Format/Info : Digital Theater Systems

Mode : 16

Format settings, Endianness : Big

Codec ID : A_DTS

Duration : 1h 36mn

Bit rate mode : Constant

Bit rate : 1 509 Kbps

Channel(s) : 6 channels

Channel positions : Front: L C R, Side: L R, LFE

Sampling rate : 48.0 KHz

Frame rate : 93.750 fps (512 spf)

Bit depth : 24 bits

Compression mode : Lossy

Stream size : 1.02 GiB (10%)

Title : Original

Language : English

Default : No

Forced : No

Text #1

ID : 4

Format : UTF-8

Codec ID : S_TEXT/UTF8

Codec ID/Info : UTF-8 Plain Text

Duration : 1h 32mn

Bit rate : 28 bps

Count of elements : 680

Stream size : 19.1 KiB (0%)

Title : Full

Language : English

Default : No

Forced : No

Text #2

ID : 5

Format : UTF-8

Codec ID : S_TEXT/UTF8

Codec ID/Info : UTF-8 Plain Text

Duration : 1h 32mn

Bit rate : 38 bps

Count of elements : 1042

Stream size : 26.2 KiB (0%)

Title : SDH

Language : English

Default : No

Forced : No

Menu

00:00:00.000 : en:00:00:00.000

00:04:04.494 : en:00:04:04.494

00:08:36.641 : en:00:08:36.641

00:14:12.935 : en:00:14:12.935

00:18:45.333 : en:00:18:45.333

00:22:38.816 : en:00:22:38.816

00:26:12.237 : en:00:26:12.237

00:30:05.345 : en:00:30:05.345

00:34:30.193 : en:00:34:30.193

00:37:44.429 : en:00:37:44.429

00:42:19.537 : en:00:42:19.537

00:47:05.406 : en:00:47:05.406

00:52:51.085 : en:00:52:51.085

00:56:00.482 : en:00:56:00.482

01:03:47.824 : en:01:03:47.824

01:11:23.988 : en:01:11:23.988

01:15:54.884 : en:01:15:54.884

01:22:04.670 : en:01:22:04.670

01:24:10.045 : en:01:24:10.045

01:29:31.116 : en:01:29:31.116
Релиз от: Автор релиза: pb.wtf



Скачать Хардкор через торрент http://s16.radikal.ru/i190/1607/07/57452cbf1731.jpg Скачать фильм Хардкор через торрент бесплантно в хорошем качестве Описание: Прекрасная супружеская жизнь рядом с очаровательной Эстель — это все, что помнит главный герой после того, как просыпается в ... 8.8 10 24
Info! Золотая раздача, скачанное не засчитывается.
Торрент: Зарегистрирован [2016-07-15 08:58] · скачан: 1 349 раз
Статус: √ проверено
Размер: 9.78 GB
Как cкачать? Как скачать Хардкор через торрент | qTorrent

% Раздел Тема Автор DL S | L
Фильмы (HD 720p, 1080p) (48-60 fps) [ 15.09 GB ] Хардкор / Hardcore Henry [2015 BDRip 1080p / 60 FPS Dub / AVO Original] Tiberiumsun69 Скачать
1 | 0
Фильмы [HD 720p, 1080p] (Хороший звук DUB, MVO) [ 4.04 GB ] Хардкор / Hardcore Henry [2015 BDRip 720p] Dub / DEVI Скачать
1 | 0

28-11-2019 20:33  

Отключить всю рекламу на сайте

15-07-2016 11:04 Хардкор Скачать торрент  

Такого больше не надоpb.wtf



15-07-2016 12:49 Хардкор Скачать торрент  

Не знаю, как вам, но мне фильм понравился, ходил в кино, не пожалел, надеюсь, увижу ещё нечто подобное на экране)pb.wtf



15-07-2016 14:45 Хардкор Скачать торрент  

Хороший фильмец.pb.wtf



21-07-2016 15:17 Хардкор Скачать торрент  

Забавное кинцо, на раз два по сидеть. pb.wtf



24-08-2016 09:44 Хардкор Скачать торрент  

Ну не знаю, мне фильмец понравился. Рубилово конкретноеpb.wtf



    Дорогой пользователь! Огромная просьба, поблагодарите релизера, оцените раздачу и оставьте свои комментарий, если Вы скачали Хардкор через торрент бесплатно! Внесите свою лепту в развитие PiratBit!
    Комментировать посты могут только пользователи прошедшие не сложную регистрацию
    Показать сообщения:    

    Хардкор через торрент
    Скачать бесплатно Хардкор
    Хардкор скачать торрент
    Хардкор смотреть онлайн
    Cкачать фильм Хардкор бесплатно
    Хардкор скачать торрент в хорошем качестве
    Хардкор смотреть онлайн бесплатно в хорошем качестве


    Вы не можете начинать темы
    Вы не можете отвечать на сообщения
    Вы не можете редактировать свои сообщения
    Вы не можете удалять свои сообщения
    Вы не можете голосовать в опросах
    Вы не можете прикреплять файлы к сообщениям
    Вы можете скачивать файлы